WTV files only work with 1.1.1?

Dec 13, 2011 at 8:02 PM

I've successfully encoded hundreds of WTV files (Windows Media Center) with Vidcoder, but no version after 1.1.1 works with them. It crashes on "Scanning source...". I've uninstalled, deleted all traces of previous installations as indicated on this forum... to no avail. Here's the log generated right before the crash. Any help will be greatly appreciated.

 

## VidCoder 1.2.4.0 (x86)

# Starting scan: D:\Recorded TV\Fear Factor_WRCDT_2011_12_12_19_57_00.wtv

[15:50:56] hb_init: starting libhb thread

[15:50:56] hb_scan: path=D:\Recorded TV\Fear Factor_WRCDT_2011_12_12_19_57_00.wtv, title_index=0

libbluray/bdnav/index_parse.c:157: indx_parse(): error opening D:\Recorded TV\Fear Factor_WRCDT_2011_12_12_19_57_00.wtv/BDMV/index.bdmv

libbluray/bluray.c:1471: nav_get_title_list(D:\Recorded TV\Fear Factor_WRCDT_2011_12_12_19_57_00.wtv) failed (04AD7960)

[15:50:56] bd: not a bd - trying as a stream/file instead

libdvdread: Encrypted DVD support unavailable.

libdvdnav:DVDOpenFileUDF:UDFFindFile /VIDEO_TS/VIDEO_TS.IFO failed

libdvdnav:DVDOpenFileUDF:UDFFindFile /VIDEO_TS/VIDEO_TS.BUP failed

libdvdread: Can't open file VIDEO_TS.IFO.

dvd: ifoOpen failed

[mpeg2video @ 04A833A0] mpeg_decode_postinit() failure

[mpeg2video @ 04A833A0] mpeg_decode_postinit() failure

[mpeg2video @ 04A833A0] mpeg_decode_postinit() failure

[mpeg2video @ 04A833A0] mpeg_decode_postinit() failure

[mpeg2video @ 04A833A0] mpeg_decode_postinit() failure

[mpeg2video @ 04A833A0] mpeg_decode_postinit() failure

[mpeg2video @ 04A833A0] mpeg_decode_postinit() failure

[mpeg2video @ 04A833A0] mpeg_decode_postinit() failure

[mpeg2video @ 04A833A0] mpeg_decode_postinit() failure

[mpeg2video @ 04A833A0] mpeg_decode_postinit() failure

[mpeg2video @ 04A833A0] mpeg_decode_postinit() failure

[mpeg2video @ 04A833A0] mpeg_decode_postinit() failure

[mpeg2video @ 04A833A0] mpeg_decode_postinit() failure

[mpeg2video @ 04A833A0] mpeg_decode_postinit() failure

[mpeg2video @ 04A833A0] mpeg_decode_postinit() failure

[mpeg2video @ 04A833A0] mpeg_decode_postinit() failure

[mpeg2video @ 04A833A0] mpeg_decode_postinit() failure

[mpeg2video @ 04A833A0] mpeg_decode_postinit() failure

[mpeg2video @ 04A833A0] mpeg_decode_postinit() failure

[mpeg2video @ 04A833A0] mpeg_decode_postinit() failure

[mpeg2video @ 04A833A0] mpeg_decode_postinit() failure

[mpeg2video @ 04A833A0] mpeg_decode_postinit() failure

[mpeg2video @ 04A833A0] mpeg_decode_postinit() failure

Input #0, wtv, from 'D:\Recorded TV\Fear Factor_WRCDT_2011_12_12_19_57_00.wtv':

  Metadata:

    WM/MediaClassPrimaryID: db9830bd-3ab3-4fab-8a371a995f7ff74b

    WM/MediaClassSecondaryID: ba7f258a-62f7-47a9-b21f4651c42a000e

    Title           : Fear Factor

    genre           : General;Series;Action/Adventure;Game Show;Reality

    WM/OriginalReleaseTime: 0

    WM/MediaCredits : ;;Joe Rogan;

    service_provider: WRCDT

    service_name    : WRCDT (WRC-DT)

    WM/MediaNetworkAffiliation: NBC Affiliate

    WM/MediaOriginalChannel: 4

    WM/MediaOriginalChannelSubNumber: 1

    WM/MediaOriginalBroadcastDateTime: 2011-12-12T05:00:00Z

    WM/MediaOriginalRunTime: 76182915469

    WM/MediaIsStereo: true

    WM/MediaIsRepeat: false

    WM/MediaIsLive  : false

    WM/MediaIsTape  : false

    WM/MediaIsDelay : false

    WM/MediaIsSubtitled: false

    WM/MediaIsMovie : false

    WM/MediaIsPremiere: true

    WM/MediaIsFinale: false

    WM/MediaIsSAP   : false

    WM/MediaIsSport : false

    WM/Provider     : MediaCenterDefault

    WM/VideoClosedCaptioning: true

    WM/WMRVEncodeTime: 2011-12-13 00:57:01

    WM/WMRVSeriesUID: !MCSeries!00444120

    WM/WMRVServiceID: !MCService!28458625

    WM/WMRVProgramID: !MCProgram!267699224

    WM/WMRVRequestID: 0

    WM/WMRVScheduleItemID: 0

    WM/WMRVQuality  : 0

    WM/WMRVOriginalSoftPrePadding: 480

    WM/WMRVOriginalSoftPostPadding: 240

    WM/WMRVHardPrePadding: -300

    WM/WMRVHardPostPadding: 0

    WM/WMRVATSCContent: true

    WM/WMRVDTVContent: true

    WM/WMRVHDContent: true

    WM/MediaThumbType: 3

    Duration        : 76189462891

    WM/WMRVEndTime  : 2011-12-13 03:04:00

    WM/WMRVBitrate  : 12.180578

    WM/WMRVKeepUntil: 0

    WM/WMRVActualSoftPrePadding: 478

    WM/WMRVActualSoftPostPadding: 240

    WM/WMRVContentProtected: false

    WM/WMRVContentProtectedPercent: 0

    WM/WMRVExpirationDate:

    WM/WMRVExpirationSpan: 9223372036854775807

    WM/WMRVInBandRatingSystem: 255

    WM/WMRVInBandRatingLevel: 255

    WM/WMRVInBandRatingAttributes: 0

    WM/WMRVWatched  : true

  Duration: 02:06:58.38, start: 1.970856, bitrate: 12181 kb/s

    Stream #0.0[0xd]: Audio: ac3, 48000 Hz, 5.1, s16, 384 kb/s

    Stream #0.1[0xe]: Audio: ac3, 48000 Hz, stereo, s16, 96 kb/s (visual impaired)

    Stream #0.2[0xf]: Video: mpeg2video (Main), yuv420p, 1920x1080 [PAR 1:1 DAR 16:9], 65000 kb/s, 37.91 fps, 29.97 tbr, 10000k tbn, 59.94 tbc

    Stream #0.3[0x10]: Subtitle: [0][0][0][0] / 0x0000

    Stream #0.4[0x0]: Attachment: mjpeg

    Metadata:

      title           : TV Thumbnail

[15:50:56] add_ffmpeg_subtitle: unknown subtitle stream type: 0x17007

Coordinator
Dec 13, 2011 at 8:13 PM

Looks like a crash in the HandBrake core. Does it do the same thing with the latest HandBrake nightly?

Dec 14, 2011 at 7:24 PM
Edited Dec 14, 2011 at 7:25 PM

It does the same thing, sort of. It cannot load the file and I get "No Titles found. Your source may be copy protected, badly mastered or in a format which HandBrake does not support". Interestingly enough, VidCoder 1.2.4.0 x64 can handle the file with no problems whatsoever  (on a x64 machine), just like with version 1.1.1. This is the log I get. Does the x64 version use a different build of HandBrake?

## VidCoder 1.2.4.0 (x64)

# Starting scan: E:\ABC-NBC-CBS-Etc\(2011-12-12) - ABC World News With Diane Sawyer.wtv

[15:20:14] hb_init: starting libhb thread

[15:20:14] hb_scan: path=E:\ABC-NBC-CBS-Etc\(2011-12-12) - ABC World News With Diane Sawyer.wtv, title_index=0

libbluray/bdnav/index_parse.c:157: indx_parse(): error opening E:\ABC-NBC-CBS-Etc\(2011-12-12) - ABC World News With Diane Sawyer.wtv/BDMV/index.bdmv

libbluray/bluray.c:1471: nav_get_title_list(E:\ABC-NBC-CBS-Etc\(2011-12-12) - ABC World News With Diane Sawyer.wtv) failed (00000000237D4890)

[15:20:14] bd: not a bd - trying as a stream/file instead

libdvdread: Encrypted DVD support unavailable.

libdvdnav:DVDOpenFileUDF:UDFFindFile /VIDEO_TS/VIDEO_TS.IFO failed

libdvdnav:DVDOpenFileUDF:UDFFindFile /VIDEO_TS/VIDEO_TS.BUP failed

libdvdread: Can't open file VIDEO_TS.IFO.

dvd: ifoOpen failed

[mpeg2video @ 00000000237DA880] mpeg_decode_postinit() failure

[mpeg2video @ 00000000237DA880] mpeg_decode_postinit() failure

[mpeg2video @ 00000000237DA880] mpeg_decode_postinit() failure

[mpeg2video @ 00000000237DA880] mpeg_decode_postinit() failure

[mpeg2video @ 00000000237DA880] mpeg_decode_postinit() failure

[mpeg2video @ 00000000237DA880] mpeg_decode_postinit() failure

[mpeg2video @ 00000000237DA880] mpeg_decode_postinit() failure

[mpeg2video @ 00000000237DA880] mpeg_decode_postinit() failure

[mpeg2video @ 00000000237DA880] mpeg_decode_postinit() failure

[mpeg2video @ 00000000237DA880] mpeg_decode_postinit() failure

[mpeg2video @ 00000000237DA880] mpeg_decode_postinit() failure

[mpeg2video @ 00000000237DA880] mpeg_decode_postinit() failure

[mpeg2video @ 00000000237DA880] mpeg_decode_postinit() failure

[mpeg2video @ 00000000237DA880] mpeg_decode_postinit() failure

[mpeg2video @ 00000000237DA880] mpeg_decode_postinit() failure

[mpeg2video @ 00000000237DA880] mpeg_decode_postinit() failure

[mpeg2video @ 00000000237DA880] mpeg_decode_postinit() failure

[mpeg2video @ 00000000237DA880] mpeg_decode_postinit() failure

[mpeg2video @ 00000000237DA880] mpeg_decode_postinit() failure

[mpeg2video @ 00000000237DA880] mpeg_decode_postinit() failure

Input #0, wtv, from 'E:\ABC-NBC-CBS-Etc\(2011-12-12) - ABC World News With Diane Sawyer.wtv':

  Metadata:

    WM/MediaClassPrimaryID: db9830bd-3ab3-4fab-8a371a995f7ff74b

    WM/MediaClassSecondaryID: ba7f258a-62f7-47a9-b21f4651c42a000e

    Title           : ABC World News With Diane Sawyer

    WM/SubTitleDescription: The latest world and national news.

    genre           : News;General;Other

    WM/OriginalReleaseTime: 0

    WM/MediaCredits : ;;;

    service_provider: WJLADT

    service_name    : WJLADT (WJLA-DT)

    WM/MediaNetworkAffiliation: ABC Affiliate

    WM/MediaOriginalChannel: 507

    WM/MediaOriginalChannelSubNumber: 0

    WM/MediaOriginalBroadcastDateTime: 0001-01-01T00:00:00Z

    WM/MediaOriginalRunTime: 20909945081

    WM/MediaIsStereo: false

    WM/MediaIsRepeat: false

    WM/MediaIsLive  : false

    WM/MediaIsTape  : false

    WM/MediaIsDelay : false

    WM/MediaIsSubtitled: false

    WM/MediaIsMovie : false

    WM/MediaIsPremiere: false

    WM/MediaIsFinale: false

    WM/MediaIsSAP   : false

    WM/MediaIsSport : false

    WM/Provider     : MediaCenterDefault

    WM/VideoClosedCaptioning: true

    WM/WMRVEncodeTime: 2011-12-12 23:28:09

    WM/WMRVSeriesUID: !GenericSeries!ABC World News With Diane Sawyer

    WM/WMRVServiceID: !MCService!28456026

    WM/WMRVProgramID: !MCProgram!226222919

    WM/WMRVRequestID: 0

    WM/WMRVScheduleItemID: 0

    WM/WMRVQuality  : 0

    WM/WMRVOriginalSoftPrePadding: 420

    WM/WMRVOriginalSoftPostPadding: 180

    WM/WMRVHardPrePadding: -300

    WM/WMRVHardPostPadding: 0

    WM/WMRVATSCContent: true

    WM/WMRVDTVContent: true

    WM/WMRVHDContent: true

    Duration        : 19134504431

    WM/WMRVEndTime  : 2011-12-13 00:00:02

    WM/WMRVBitrate  : 9.591143

    WM/WMRVKeepUntil: 0

    WM/WMRVActualSoftPrePadding: 410

    WM/WMRVActualSoftPostPadding: 2

    WM/WMRVContentProtected: false

    WM/WMRVContentProtectedPercent: 0

    WM/WMRVExpirationDate:

    WM/WMRVExpirationSpan: 9223372036854775807

    WM/WMRVInBandRatingSystem: 255

    WM/WMRVInBandRatingLevel: 255

    WM/WMRVInBandRatingAttributes: 0

    WM/WMRVWatched  : false

    WM/MediaThumbWidth: 352

    WM/MediaThumbHeight: 198

    WM/MediaThumbStride: 1056

    WM/MediaThumbRet: 0

    WM/MediaThumbRatingSystem: 255

    WM/MediaThumbRatingLevel: 255

    WM/MediaThumbRatingAttributes: 0

    WM/MediaThumbAspectRatioX: 16

    WM/MediaThumbAspectRatioY: 9

    WM/MediaThumbTimeStamp: 4644807349778167910

  Duration: 00:31:50.10, start: 6.029418, bitrate: 9607 kb/s

    Stream #0.0[0x2e](eng): Audio: ac3, 48000 Hz, 5.1, s16, 384 kb/s

    Stream #0.1[0x2f]: Video: mpeg2video (Main), yuv420p, 1280x720 [PAR 1:1 DAR 16:9], 17782 kb/s, 599.40 fps, 59.94 tbr, 10000k tbn, 119.88 tbc

    Stream #0.2[0x30]: Subtitle: [0][0][0][0] / 0x0000

[15:20:14] add_ffmpeg_subtitle: unknown subtitle stream type: 0x17007

[15:20:14] scan: decoding previews for title 1

[15:20:14] scan: audio 0x0: AC-3, rate=48000Hz, bitrate=384000 English (AC3) (5.1 ch)

[15:20:15] scan: 10 previews, 1280x720, 59.940 fps, autocrop = 2/0/0/2, aspect 16:9, PAR 1:1

[15:20:15] scan: title (0) job->width:1280, job->height:720

[15:20:15] libhb: scan thread found 1 valid title(s)

# Scan completed

Coordinator
Dec 14, 2011 at 7:39 PM

It uses the same build, but the x64 version of hb.dll. It could be that it only crashes on the x86 version; these kind of problems have cropped up before.

Dec 14, 2011 at 8:21 PM

Interesting. Should I upload a short WTV sample to see if someone can help with it?

Coordinator
Dec 14, 2011 at 8:30 PM

Yes, I would recommend reporting that crash (with the encode log from HandBrake) to them.