I used Vidcodr and HandBrake same problem ( I used HandBrake 0.9.9 to try only)

May 16, 2013 at 11:18 AM
Edited May 16, 2013 at 11:20 AM
I used Vidcodr three times and I am having a problem in movies about quality
I Encoder three different movies and the same problem about quality
and I tried to change all the settings and level 4.1 or 5.0, but the same problem
If I try to play the movie in VLC media player I find the problem of poor quality
http://img547.imageshack.us/img547/7444/38839497.png

but if I tried to play the movie on KMPlayer or any other program I didnot find any problem and become a good quality

Why you do not put in settings  aspect ratio: 4/3 and aspect ratio: 16/9 ?


Sorry for my English


Sample for my Encoder
https://mega.co.nz/#!V0NhUZzT!BQsMIETfeMCnhpX6Mnety3a4ycB31uVL9L3UkVNL2dw

TEXT

Log

VidCoder 1.4.19.0 (x64)

Starting scan: D:\Side Effects 2013 1080p Blu-ray Remux AVC DTS-HD MA 5.1 - KRaLiMaRKo\Side Effects 2013 1080p - alrmothe.mkv

[13:21:22] hb_init: starting libhb thread
[13:21:22] hb_scan: path=D:\Side Effects 2013 1080p Blu-ray Remux AVC DTS-HD MA 5.1 - KRaLiMaRKo\Side Effects 2013 1080p - alrmothe.mkv, title_index=0
libbluray/bdnav/index_parse.c:162: indx_parse(): error opening D:\Side Effects 2013 1080p Blu-ray Remux AVC DTS-HD MA 5.1 - KRaLiMaRKo\Side Effects 2013 1080p - alrmothe.mkv/BDMV/index.bdmv
libbluray/bdnav/index_parse.c:162: indx_parse(): error opening D:\Side Effects 2013 1080p Blu-ray Remux AVC DTS-HD MA 5.1 - KRaLiMaRKo\Side Effects 2013 1080p - alrmothe.mkv/BDMV/BACKUP/index.bdmv
libbluray/bluray.c:1725: nav_get_title_list(D:\Side Effects 2013 1080p Blu-ray Remux AVC DTS-HD MA 5.1 - KRaLiMaRKo\Side Effects 2013 1080p - alrmothe.mkv) failed (0000000000803A60)
[13:21:22] bd: not a bd - trying as a stream/file instead
libdvdnav: Using dvdnav version 4.1.3
libdvdread: Encrypted DVD support unavailable.
libdvdnav:DVDOpenFileUDF:UDFFindFile /VIDEO_TS/VIDEO_TS.IFO failed
libdvdnav:DVDOpenFileUDF:UDFFindFile /VIDEO_TS/VIDEO_TS.BUP failed
libdvdread: Can't open file VIDEO_TS.IFO.
libdvdnav: vm: failed to read VIDEO_TS.IFO
[13:21:22] dvd: not a dvd - trying as a stream/file instead
Input #0, matroska,webm, from 'D:\Side Effects 2013 1080p Blu-ray Remux AVC DTS-HD MA 5.1 - KRaLiMaRKo\Side Effects 2013 1080p - alrmothe.mkv':
Metadata:
title           : Side Effects 2013 1080p Blu-ray Remux AVC DTS-HD MA 5.1 - KRaLiMaRKo
Duration: 01:46:22.50, start: 0.000000, bitrate: N/A
Chapter #0.0: start 0.000000, end 324.324000
Metadata:
  title           : 00:00:00.000
Chapter #0.1: start 324.324000, end 479.437000
Metadata:
  title           : 00:05:24.324
Chapter #0.2: start 479.437000, end 786.452000
Metadata:
  title           : 00:07:59.437
Chapter #0.3: start 786.452000, end 1102.935000
Metadata:
  title           : 00:13:06.452
Chapter #0.4: start 1102.935000, end 1419.335000
Metadata:
  title           : 00:18:22.935
Chapter #0.5: start 1419.335000, end 1836.960000
Metadata:
  title           : 00:23:39.335
Chapter #0.6: start 1836.960000, end 2083.540000
Metadata:
  title           : 00:30:36.960
Chapter #0.7: start 2083.540000, end 2259.632000
Metadata:
  title           : 00:34:43.540
Chapter #0.8: start 2259.632000, end 2673.921000
Metadata:
  title           : 00:37:39.632
Chapter #0.9: start 2673.921000, end 3094.717000
Metadata:
  title           : 00:44:33.921
Chapter #0.10: start 3094.717000, end 3502.999000
Metadata:
  title           : 00:51:34.717
Chapter #0.11: start 3502.999000, end 3823.153000
Metadata:
  title           : 00:58:22.999
Chapter #0.12: start 3823.153000, end 4166.996000
Metadata:
  title           : 01:03:43.153
Chapter #0.13: start 4166.996000, end 4553.424000
Metadata:
  title           : 01:09:26.996
Chapter #0.14: start 4553.424000, end 4880.292000
Metadata:
  title           : 01:15:53.424
Chapter #0.15: start 4880.292000, end 5187.766000
Metadata:
  title           : 01:21:20.292
Chapter #0.16: start 5187.766000, end 5665.159000
Metadata:
  title           : 01:26:27.766
Chapter #0.17: start 5665.159000, end 5917.745000
Metadata:
  title           : 01:34:25.159
Chapter #0.18: start 5917.745000, end 6207.618000
Metadata:
  title           : 01:38:37.745
Chapter #0.19: start 6207.618000, end 6382.507000
Metadata:
  title           : 01:43:27.618
Stream #0.0(eng): Video: h264 (High), yuv420p, 1920x1080 [PAR 1:1 DAR 16:9], 23.98 fps, 23.98 tbr, 1k tbn, 47.95 tbc (default)
Stream #0.1(eng): Audio: dca (DTS-HD MA), 48000 Hz, 5.1, fltp, 1536 kb/s (default)
Stream #0.2(eng): Subtitle: pgssub (default)
Metadata:
  title           : SDH
Stream #0.3(fre): Subtitle: pgssub
Stream #0.4(spa): Subtitle: pgssub
Metadata:
  title           : Latin American Spanish
[13:21:22] scan: decoding previews for title 1
[13:21:24] scan: 10 previews, 1920x1080, 23.976 fps, autocrop = 20/20/0/0, aspect 16:9, PAR 1:1
[13:21:24] libhb: scan thread found 1 valid title(s)

Scan completed

Starting queue

VidCoder 1.4.19.0 (x64)

Starting job 1/1

Path: D:\Side Effects 2013 1080p Blu-ray Remux AVC DTS-HD MA 5.1 - KRaLiMaRKo\Side Effects 2013 1080p - alrmothe.mkv

Title: 1

Seconds: 360-415

Worker ready: Service state is Opened on pipe VidCoderWorker.75eac01e-7e8f-461d-84ea-8cb454163dd6

Connecting to process 10976 on pipe VidCoderWorker.75eac01e-7e8f-461d-84ea-8cb454163dd6

[13:42:45] hb_init: starting libhb thread
dvd: ifoOpen failed
[13:42:45] hb_scan: path=D:\Side Effects 2013 1080p Blu-ray Remux AVC DTS-HD MA 5.1 - KRaLiMaRKo\Side Effects 2013 1080p - alrmothe.mkv, title_index=1
libbluray/bdnav/index_parse.c:162: indx_parse(): error opening D:\Side Effects 2013 1080p Blu-ray Remux AVC DTS-HD MA 5.1 - KRaLiMaRKo\Side Effects 2013 1080p - alrmothe.mkv/BDMV/index.bdmv
libbluray/bdnav/index_parse.c:162: indx_parse(): error opening D:\Side Effects 2013 1080p Blu-ray Remux AVC DTS-HD MA 5.1 - KRaLiMaRKo\Side Effects 2013 1080p - alrmothe.mkv/BDMV/BACKUP/index.bdmv
libbluray/bluray.c:1725: nav_get_title_list(D:\Side Effects 2013 1080p Blu-ray Remux AVC DTS-HD MA 5.1 - KRaLiMaRKo\Side Effects 2013 1080p - alrmothe.mkv) failed (0000000000890DA0)
[13:42:45] bd: not a bd - trying as a stream/file instead
libdvdread: Encrypted DVD support unavailable.
libdvdnav:DVDOpenFileUDF:UDFFindFile /VIDEO_TS/VIDEO_TS.IFO failed
libdvdnav:DVDOpenFileUDF:UDFFindFile /VIDEO_TS/VIDEO_TS.BUP failed
libdvdread: Can't open file VIDEO_TS.IFO.
Input #0, matroska,webm, from 'D:\Side Effects 2013 1080p Blu-ray Remux AVC DTS-HD MA 5.1 - KRaLiMaRKo\Side Effects 2013 1080p - alrmothe.mkv':
Metadata:
  title           : 01:43:27.618
Stream #0.0(eng): Video: h264 (High), yuv420p, 1920x1080 [PAR 1:1 DAR 16:9], 23.98 fps, 23.98 tbr, 1k tbn, 47.95 tbc (default)
Stream #0.1(eng): Audio: dca (DTS-HD MA), 48000 Hz, 5.1, fltp, 1536 kb/s (default)
Stream #0.2(eng): Subtitle: pgssub (default)
Metadata:
  title           : SDH
Stream #0.3(fre): Subtitle: pgssub
Stream #0.4(spa): Subtitle: pgssub
Metadata:
  title           : Latin American Spanish
[13:42:45] scan: decoding previews for title 1
[13:42:47] scan: 10 previews, 1920x1080, 23.976 fps, autocrop = 20/20/0/0, aspect 16:9, PAR 1:1
[13:42:47] libhb: scan thread found 1 valid title(s)
[13:42:47] 2 job(s) to process
[13:42:47] starting job
[13:42:47] work: track 1, compression level not supported by codec
[13:42:47] work: track 1, quality mode not supported by codec
[13:42:47] work: track 1, dithering not supported by codec
[13:42:47] sync: expecting 1342 video frames
[13:42:47] job configuration:
[13:42:47] * source
[13:42:47] + D:\Side Effects 2013 1080p Blu-ray Remux AVC DTS-HD MA 5.1 - KRaLiMaRKo\Side Effects 2013 1080p - alrmothe.mkv
[13:42:47] + title 1, start 0:6:0.00 stop 0:6:55.00
[13:42:47] + container: matroska,webm
[13:42:47] * desti
Coordinator
May 16, 2013 at 2:39 PM
The setting you want to change is the Quality target. Lower it to 19 or 18 and see what happens. As for the aspect ratio, you can either decide to keep the aspect ratio from the source (by checking the box) or manually determine the dimensions and pixel aspect ratio yourself (which will give you a new aspect ratio). 99% of the time just preserving the source aspect ratio is what you want to do.
May 17, 2013 at 5:38 PM
Edited May 17, 2013 at 8:48 PM
I tried to change Quality target but the same problem Thanks you for trying to help


After trying lasted for two hours ,quality Has become a much better

I changed some video filters and options String, Thank you