Even I put constant framerate at the settings it gives me variable framerate...???

Feb 21, 2014 at 9:07 AM
Edited Feb 22, 2014 at 8:06 AM
and the source has constant framerate... any help appreciated...
Feb 22, 2014 at 11:13 AM
Complete name : C:\Users\Balema\VidCoder Files\kew - 0.00.00-0.00.20.mp4
Format : MPEG-4
Format profile : Base Media / Version 2
Codec ID : mp42
File size : 14.2 MiB
Duration : 20s 11ms
Overall bit rate mode : Variable
Overall bit rate : 5 932 Kbps
Encoded date : UTC 2014-02-22 12:01:18
Tagged date : UTC 2014-02-22 12:02:08
Writing application : HandBrake 0.9.9 2013051800

Video
ID : 1
Format : AVC
Format/Info : Advanced Video Codec
Format profile : High@L4.1 Format settings, CABAC : Yes
Format settings, ReFrames : 8 frames
Codec ID : avc1
Codec ID/Info : Advanced Video Coding
Duration : 19s 978ms
Bit rate mode : Variable
Bit rate : 5 403 Kbps
Maximum bit rate : 14.7 Mbps
Width : 1 280 pixels
Height : 720 pixels
Display aspect ratio : 16:9
Frame rate mode : Variable
Frame rate : 23.976 fps
Minimum frame rate : 23.974 fps
Maximum frame rate : 23.981 fps
Color space : YUV
Chroma subsampling : 4:2:0
Bit depth : 8 bits
Scan type : Progressive
Bits/(Pixel*Frame) : 0.245
Stream size : 13.1 MiB (92%)
Writing library : x264 core 130 r2273 b3065e6
Encoding settings : cabac=1 / ref=8 / deblock=1:1:0 / analyse=0x3:0x113 / me=umh / subme=9 / psy=1 / psy_rd=1.00:0.15 / mixed_ref=1 / me_range=16 / chroma_me=1 / trellis=2 / 8x8dct=1 / cqm=0 / deadzone=21,11 / fast_pskip=1 / chroma_qp_offset=-1 / threads=12 / lookahead_threads=2 / sliced_threads=0 / nr=1 / decimate=1 / interlaced=0 / bluray_compat=0 / constrained_intra=0 / bframes=3 / b_pyramid=2 / b_adapt=2 / b_bias=0 / direct=3 / weightb=1 / open_gop=0 / weightp=2 / keyint=250 / keyint_min=23 / scenecut=40 / intra_refresh=0 / rc_lookahead=60 / rc=2pass / mbtree=1 / bitrate=5403 / ratetol=1.0 / qcomp=0.60 / qpmin=0 / qpmax=69 / qpstep=4 / cplxblur=20.0 / qblur=0.5 / vbv_maxrate=14700 / vbv_bufsize=35000 / nal_hrd=vbr / ip_ratio=1.40 / aq=1:1.10
Encoded date : UTC 2014-02-22 12:01:18
Tagged date : UTC 2014-02-22 12:02:08
Color primaries : BT.709
Transfer characteristics : BT.709
Matrix coefficients : BT.709

Audio
ID : 2
Format : AAC
Format/Info : Advanced Audio Codec
Format profile : LC
Codec ID : 40
Duration : 20s 11ms
Bit rate mode : Variable
Bit rate : 452 Kbps
Maximum bit rate : 714 Kbps
Channel(s) : 6 channels
Channel positions : Front: L C R, Side: L R, LFE
Sampling rate : 48.0 KHz
Compression mode : Lossy
Stream size : 1.08 MiB (8%)
Language : English
Encoded date : UTC 2014-02-22 12:01:18
Tagged date : UTC 2014-02-22 12:02:07
Coordinator
Feb 23, 2014 at 2:18 AM
I think HandBrake has the same behavior here; you could try that out. I think their standard response is that MediaInfo doesn't do a great job of detecting VFR/CFR.
Mar 2, 2014 at 8:21 AM
When I encode the video at MKV it gives me contant framerate the problem is with the mp4, I tried with another progs and they give me constant... so I am sure that it is not the MediaInfo... I hope you fix it because VidCoder is a brilliant prog!
Mar 2, 2014 at 8:32 AM
With 1.5.17 beta 32-bit (the same problem):

C:\Users\Balema\VidCoder Files\kew - 0.00.00-0.00.20.mp4
General
  Complete name : C:\Users\Balema\VidCoder Files\kew - 0.00.00-0.00.20.mp4
  Format : MPEG-4
  Format profile : Base Media
  Codec ID : isom
  File size : 14.1 MiB
  Duration : 19s 979ms
  Overall bit rate mode : Variable
  Overall bit rate : 5 899 Kbps
  Writing application : Lavf55.12.0
Video #1
  ID : 1
  Format : AVC
  Format/Info : Advanced Video Codec
  Format profile : High@L4.1
  Format settings, CABAC : Yes
  Format settings, ReFrames : 8 frames
  Codec ID : avc1
  Codec ID/Info : Advanced Video Coding
  Duration : 19s 979ms
  Bit rate mode : Variable
  Bit rate : 5 403 Kbps
  Maximum bit rate : 14.7 Mbps
  Width : 1 280 pixels
  Height : 720 pixels
  Display aspect ratio : 16:9
  Frame rate mode : Variable
  Frame rate : 23.976 fps
  Minimum frame rate : 23.974 fps
  Maximum frame rate : 23.981 fps
  Color space : YUV
  Chroma subsampling : 4:2:0
  Bit depth : 8 bits
  Scan type : Progressive
  Bits/(Pixel*Frame) : 0.245
  Stream size : 13.1 MiB (93%)
  Writing library : x264 core 142 r2389 956c8d8
  Encoding settings : cabac=1 / ref=8 / deblock=1:1:0 / analyse=0x3:0x113 / me=umh / subme=9 / psy=1 / psy_rd=1.00:0.15 / mixed_ref=1 / me_range=16 / chroma_me=1 / trellis=2 / 8x8dct=1 / cqm=0 / deadzone=21,11 / fast_pskip=1 / chroma_qp_offset=-1 / threads=12 / lookahead_threads=2 / sliced_threads=0 / nr=1 / decimate=1 / interlaced=0 / bluray_compat=0 / constrained_intra=0 / bframes=3 / b_pyramid=2 / b_adapt=2 / b_bias=0 / direct=3 / weightb=1 / open_gop=0 / weightp=2 / keyint=250 / keyint_min=23 / scenecut=40 / intra_refresh=0 / rc_lookahead=60 / rc=2pass / mbtree=1 / bitrate=5403 / ratetol=1.0 / qcomp=0.60 / qpmin=0 / qpmax=69 / qpstep=4 / cplxblur=20.0 / qblur=0.5 / vbv_maxrate=14700 / vbv_bufsize=35000 / nal_hrd=vbr / filler=0 / ip_ratio=1.40 / aq=1:1.10
  Color primaries : BT.709
  Transfer characteristics : BT.709
  Matrix coefficients : BT.709
Audio #2
  ID : 2
  Format : AAC
  Format/Info : Advanced Audio Codec
  Format profile : LC
  Codec ID : 40
  Duration : 19s 968ms
  Bit rate mode : Variable
  Bit rate : 412 Kbps
  Channel count : 2 channels
  Original Channel count : 6 channels
  Channel positions : Front: L C R, Side: L R, LFE
  Sampling rate : 48.0 KHz
  Compression mode : Lossy
  Stream size : 1 004 KiB (7%)
  Language : English
Coordinator
Mar 3, 2014 at 11:46 PM