x265 encoding fails

Nov 21, 2014 at 6:41 PM
Hello, I downloaded the very latest BETA and when I select x265 profile, it fails encoding.

VidCoder 1.5.27.0 (x86)

Starting job 1/1

Path: D:\S\1\Elementary.S03E04.720p.WEB-DL.DD5.1.H.264-NTb.mkv

Title: 1

Range: All

Worker ready: Service state is Opened on pipe VidCoderWorker.8c7d034a-0aee-4b86-83ff-878061f19a34

Connecting to process 4216 on pipe VidCoderWorker.8c7d034a-0aee-4b86-83ff-878061f19a34

[10:38:53] hb_init: starting libhb thread
[10:38:53] CPU: Intel(R) Xeon(R) CPU E5-1650 0 @ 3.20GHz
[10:38:53] - Intel microarchitecture Sandy Bridge
[10:38:53] - logical processor count: 12
[10:38:53] OpenCL: library not available
[10:38:53] Intel Quick Sync Video support: no
[10:38:53] hb_scan: path=D:\S\1\Elementary.S03E04.720p.WEB-DL.DD5.1.H.264-NTb.mkv, title_index=1
libbluray/bdnav/index_parse.c:162: indx_parse(): error opening D:\S\1\Elementary.S03E04.720p.WEB-DL.DD5.1.H.264-NTb.mkv/BDMV/index.bdmv
libbluray/bdnav/index_parse.c:162: indx_parse(): error opening D:\S\1\Elementary.S03E04.720p.WEB-DL.DD5.1.H.264-NTb.mkv/BDMV/BACKUP/index.bdmv
libbluray/bluray.c:2182: nav_get_title_list(D:\S\1\Elementary.S03E04.720p.WEB-DL.DD5.1.H.264-NTb.mkv) failed
[10:38:53] bd: not a bd - trying as a stream/file instead
libdvdnav: Using dvdnav version 5.0.1
libdvdread: Encrypted DVD support unavailable.
libdvdread:DVDOpenFileUDF:UDFFindFile /VIDEO_TS/VIDEO_TS.IFO failed
libdvdread:DVDOpenFileUDF:UDFFindFile /VIDEO_TS/VIDEO_TS.BUP failed
libdvdread: Can't open file VIDEO_TS.IFO.
libdvdnav: vm: failed to read VIDEO_TS.IFO
[10:38:53] dvd: not a dvd - trying as a stream/file instead
Input #0, matroska,webm, from 'D:\S\1\Elementary.S03E04.720p.WEB-DL.DD5.1.H.264-NTb.mkv':
Duration: 00:43:23.04, start: 0.000000, bitrate: N/A
Stream #0.0(eng): Video: h264 (High), yuv420p, 1280x720 [PAR 1:1 DAR 16:9], 23.98 fps, 1k tbn (default)
Metadata:
  BPS             : 3904213
  BPS-eng         : 3904213
  DURATION        : 00:43:23.020000000
  DURATION-eng    : 00:43:23.020000000
  NUMBER_OF_FRAMES: 62410
  NUMBER_OF_FRAMES-eng: 62410
  NUMBER_OF_BYTES : 1270343123
  NUMBER_OF_BYTES-eng: 1270343123
  _STATISTICS_WRITING_APP: mkvmerge v7.2.0 ('On Every Street') 64bit built on Sep 13 2014 15:52:10
  _STATISTICS_WRITING_APP-eng: mkvmerge v7.2.0 ('On Every Street') 64bit built on Sep 13 2014 15:52:10
  _STATISTICS_WRITING_DATE_UTC: 2014-11-21 10:46:13
  _STATISTICS_WRITING_DATE_UTC-eng: 2014-11-21 10:46:13
  _STATISTICS_TAGS: BPS DURATION NUMBER_OF_FRAMES NUMBER_OF_BYTES
  _STATISTICS_TAGS-eng: BPS DURATION NUMBER_OF_FRAMES NUMBER_OF_BYTES
Stream #0.1(eng): Audio: ac3, 48000 Hz, 5.1, fltp, 384 kb/s (default)
Metadata:
  BPS             : 384000
  BPS-eng         : 384000
  DURATION        : 00:43:23.040000000
  DURATION-eng    : 00:43:23.040000000
  NUMBER_OF_FRAMES: 81345
  NUMBER_OF_FRAMES-eng: 81345
  NUMBER_OF_BYTES : 124945920
  NUMBER_OF_BYTES-eng: 124945920
  _STATISTICS_WRITING_APP: mkvmerge v7.2.0 ('On Every Street') 64bit built on Sep 13 2014 15:52:10
  _STATISTICS_WRITING_APP-eng: mkvmerge v7.2.0 ('On Every Street') 64bit built on Sep 13 2014 15:52:10
  _STATISTICS_WRITING_DATE_UTC: 2014-11-21 10:46:13
  _STATISTICS_WRITING_DATE_UTC-eng: 2014-11-21 10:46:13
  _STATISTICS_TAGS: BPS DURATION NUMBER_OF_FRAMES NUMBER_OF_BYTES
  _STATISTICS_TAGS-eng: BPS DURATION NUMBER_OF_FRAMES NUMBER_OF_BYTES
Stream #0.2(eng): Subtitle: [0][0][0][0] / 0x0000 (default)
Metadata:
  BPS             : 148
  BPS-eng         : 148
  DURATION        : 00:42:42.692000000
  DURATION-eng    : 00:42:42.692000000
  NUMBER_OF_FRAMES: 1087
  NUMBER_OF_FRAMES-eng: 1087
  NUMBER_OF_BYTES : 47419
  NUMBER_OF_BYTES-eng: 47419
  _STATISTICS_WRITING_APP: mkvmerge v7.2.0 ('On Every Street') 64bit built on Sep 13 2014 15:52:10
  _STATISTICS_WRITING_APP-eng: mkvmerge v7.2.0 ('On Every Street') 64bit built on Sep 13 2014 15:52:10
  _STATISTICS_WRITING_DATE_UTC: 2014-11-21 10:46:13
  _STATISTICS_WRITING_DATE_UTC-eng: 2014-11-21 10:46:13
  _STATISTICS_TAGS: BPS DURATION NUMBER_OF_FRAMES NUMBER_OF_BYTES
  _STATISTICS_TAGS-eng: BPS DURATION NUMBER_OF_FRAMES NUMBER_OF_BYTES
[10:38:53] dxva2:IDirect3D9_CreateDevice failed
[10:38:53] dxva2:Failed to create Direct3D device
[10:38:53] scan: decoding previews for title 1
Input #0, matroska,webm, from 'D:\S\1\Elementary.S03E04.720p.WEB-DL.DD5.1.H.264-NTb.mkv':
Duration: 00:43:23.04, start: 0.000000, bitrate: N/A
Stream #0.0(eng): Video: h264 (High), yuv420p, 1280x720 [PAR 1:1 DAR 16:9], 23.98 fps, 1k tbn (default)
Metadata:
  BPS             : 3904213
  BPS-eng         : 3904213
  DURATION        : 00:43:23.020000000
  DURATION-eng    : 00:43:23.020000000
  NUMBER_OF_FRAMES: 62410
  NUMBER_OF_FRAMES-eng: 62410
  NUMBER_OF_BYTES : 1270343123
  NUMBER_OF_BYTES-eng: 1270343123
  _STATISTICS_WRITING_APP: mkvmerge v7.2.0 ('On Every Street') 64bit built on Sep 13 2014 15:52:10
  _STATISTICS_WRITING_APP-eng: mkvmerge v7.2.0 ('On Every Street') 64bit built on Sep 13 2014 15:52:10
  _STATISTICS_WRITING_DATE_UTC: 2014-11-21 10:46:13
  _STATISTICS_WRITING_DATE_UTC-eng: 2014-11-21 10:46:13
  _STATISTICS_TAGS: BPS DURATION NUMBER_OF_FRAMES NUMBER_OF_BYTES
  _STATISTICS_TAGS-eng: BPS DURATION NUMBER_OF_FRAMES NUMBER_OF_BYTES
Stream #0.1(eng): Audio: ac3, 48000 Hz, 5.1, fltp, 384 kb/s (default)
Metadata:
  BPS             : 384000
  BPS-eng         : 384000
  DURATION        : 00:43:23.040000000
  DURATION-eng    : 00:43:23.040000000
  NUMBER_OF_FRAMES: 81345
  NUMBER_OF_FRAMES-eng: 81345
  NUMBER_OF_BYTES : 124945920
  NUMBER_OF_BYTES-eng: 124945920
  _STATISTICS_WRITING_APP: mkvmerge v7.2.0 ('On Every Street') 64bit built on Sep 13 2014 15:52:10
  _STATISTICS_WRITING_APP-eng: mkvmerge v7.2.0 ('On Every Street') 64bit built on Sep 13 2014 15:52:10
  _STATISTICS_WRITING_DATE_UTC: 2014-11-21 10:46:13
  _STATISTICS_WRITING_DATE_UTC-eng: 2014-11-21 10:46:13
  _STATISTICS_TAGS: BPS DURATION NUMBER_OF_FRAMES NUMBER_OF_BYTES
  _STATISTICS_TAGS-eng: BPS DURATION NUMBER_OF_FRAMES NUMBER_OF_BYTES
Stream #0.2(eng): Subtitle: [0][0][0][0] / 0x0000 (default)
Metadata:
  BPS             : 148
  BPS-eng         : 148
  DURATION        : 00:42:42.692000000
  DURATION-eng    : 00:42:42.692000000
  NUMBER_OF_FRAMES: 1087
  NUMBER_OF_FRAMES-eng: 1087
  NUMBER_OF_BYTES : 47419
  NUMBER_OF_BYTES-eng: 47419
  _STATISTICS_WRITING_APP: mkvmerge v7.2.0 ('On Every Street') 64bit built on Sep 13 2014 15:52:10
  _STATISTICS_WRITING_APP-eng: mkvmerge v7.2.0 ('On Every Street') 64bit built on Sep 13 2014 15:52:10
  _STATISTICS_WRITING_DATE_UTC: 2014-11-21 10:46:13
  _STATISTICS_WRITING_DATE_UTC-eng: 2014-11-21 10:46:13
  _STATISTICS_TAGS: BPS DURATION NUMBER_OF_FRAMES NUMBER_OF_BYTES
  _STATISTICS_TAGS-eng: BPS DURATION NUMBER_OF_FRAMES NUMBER_OF_BYTES
[10:38:53] scan: audio 0x1: ac3, rate=48000Hz, bitrate=384000 English (AC3) (5.1 ch)
[10:38:53] scan: 10 previews, 1280x720, 23.976 fps, autocrop = 0/0/0/0, aspect 16:9, PAR 1:1
[10:38:53] libhb: scan thread found 1 valid title(s)
[10:38:53] 2 job(s) to process
[10:38:53] starting job
[10:38:53] sync: expecting 62410 video frames
[10:38:53] job configuration:
[10:38:53] * source
[10:38:53] + D:\S\1\Elementary.S03E04.720p.WEB-DL.DD5.1.H.264-NTb.mkv
[10:38:53] + title 1, chapter(s) 1 to 1
[10:38:53] + container: matroska,webm
[10:38:53] * destination
[10:38:53] + C:\Users\wpuser02\Desktop\Elementary.S03E04.720p.WEB-DL.DD5.1.H.264-NTb.mkv
[10:38:53] + container: Matroska (libavformat)
[10:38:53] * video track
[10:38:53] + decoder: h264
[10:38:53] + filters
[10:38:53] + Framerate Shaper (1:27000000:1126125)
[10:38:53] + frame rate: 23.976 fps -> constant 23.976 fps
[10:38:53] + Crop and Scale (720:400:0:0:0:0)
[10:38:53] + source: 1280 * 720, crop (0/0/0/0): 1280 * 720, scale: 720 * 400
[10:38:53] + custom anamorphic
[10:38:53] + keeping source display aspect ratio
[10:38:53] + storage dimensions: 720 * 400, mod 16
[10:38:53] + pixel aspect ratio: 79 / 80
[10:38:53] + display dimensions: 711 * 400
[10:38:53] + encoder: H.265 (libx265)
[10:38:53] + options: rc-lookahead=30:b-adapt=0:me=umh:subme=9:analyse=none:cabac=0:trellis=0:ref=1:subme=2:me=dia:analyse=none:trellis=0:no-fast-pskip=0:8x8dct=0:weightb=0
[10:38:53] + bitrate: 289 kbps, pass: 1
[10:38:53] * audio track 1
[10:38:53] + decoder: English (AC3) (5.1 ch) (track 2, id 0x1)
[10:38:53] + bitrate: 384 kbps, samplerate: 48000 Hz
[10:38:53] + mixdown: Stereo
[10:38:53] + encoder: AAC (libavcodec)
[10:38:53] + bitrate: 96 kbps, samplerate: 48000 Hz
[10:38:53] reader: first SCR 0 id 0x0 DTS 0
[10:38:53] encx265: unknown option 'analyse'
Failure to initialise thread 'H.265/HEVC encoder (libx265)'
[10:38:53] reader: done. 1 scr changes
[10:38:53] render: 0 frames output, 0 dropped and 0 duped for CFR/PFR
[10:38:53] render: lost time: 0 (0 frames)
[10:38:53] render: gained time: 0 (0 frames) (0 not accounted for)
[10:38:53] h264-decoder done: 0 frames, 0 decoder errors, 0 drops
[10:38:53] libhb: work result = 3

Encode failed.

Job completed (Elapsed Time: 1s)

Coordinator
Nov 21, 2014 at 9:26 PM
Try deleting your options string. It looks like you have some arguments that it does not recognize.
Nov 22, 2014 at 4:13 AM
Deleted, but same error -

VidCoder 1.5.27.0 (x86)

Starting job 1/1

Path: D:\S\DDLValley.rocks_Grimm.S04E05.720p.HDTV.X264-DIMENSION.mkv

Title: 1

Range: All

Worker ready: Service state is Opened on pipe VidCoderWorker.d47c01f7-3432-451b-b8d6-bdf46bdef499

Connecting to process 10804 on pipe VidCoderWorker.d47c01f7-3432-451b-b8d6-bdf46bdef499

[20:12:02] hb_init: starting libhb thread
[20:12:02] CPU: Intel(R) Xeon(R) CPU E5-1650 0 @ 3.20GHz
[20:12:02] - Intel microarchitecture Sandy Bridge
[20:12:02] - logical processor count: 12
[20:12:02] OpenCL: library not available
[20:12:02] Intel Quick Sync Video support: no
[20:12:02] hb_scan: path=D:\S\DDLValley.rocks_Grimm.S04E05.720p.HDTV.X264-DIMENSION.mkv, title_index=1
libbluray/bdnav/index_parse.c:162: indx_parse(): error opening D:\S\DDLValley.rocks_Grimm.S04E05.720p.HDTV.X264-DIMENSION.mkv/BDMV/index.bdmv
libbluray/bdnav/index_parse.c:162: indx_parse(): error opening D:\S\DDLValley.rocks_Grimm.S04E05.720p.HDTV.X264-DIMENSION.mkv/BDMV/BACKUP/index.bdmv
libbluray/bluray.c:2182: nav_get_title_list(D:\S\DDLValley.rocks_Grimm.S04E05.720p.HDTV.X264-DIMENSION.mkv) failed
[20:12:02] bd: not a bd - trying as a stream/file instead
libdvdnav: Using dvdnav version 5.0.1
libdvdread: Encrypted DVD support unavailable.
libdvdread:DVDOpenFileUDF:UDFFindFile /VIDEO_TS/VIDEO_TS.IFO failed
libdvdread:DVDOpenFileUDF:UDFFindFile /VIDEO_TS/VIDEO_TS.BUP failed
libdvdread: Can't open file VIDEO_TS.IFO.
libdvdnav: vm: failed to read VIDEO_TS.IFO
[20:12:02] dvd: not a dvd - trying as a stream/file instead
Input #0, matroska,webm, from 'D:\S\DDLValley.rocks_Grimm.S04E05.720p.HDTV.X264-DIMENSION.mkv':
Duration: 00:41:52.34, start: 0.000000, bitrate: N/A
Stream #0.0(eng): Video: h264 (High), yuv420p, 1280x720, PAR 1:1 DAR 16:9, 23.98 fps, 1k tbn, 47.95 tbc
Stream #0.1: Audio: ac3, 48000 Hz, 5.1, fltp, 384 kb/s (default)
[20:12:02] dxva2:IDirect3D9_CreateDevice failed
[20:12:02] dxva2:Failed to create Direct3D device
[20:12:02] scan: decoding previews for title 1
Input #0, matroska,webm, from 'D:\S\DDLValley.rocks_Grimm.S04E05.720p.HDTV.X264-DIMENSION.mkv':
Duration: 00:41:52.34, start: 0.000000, bitrate: N/A
Stream #0.0(eng): Video: h264 (High), yuv420p, 1280x720, PAR 1:1 DAR 16:9, 23.98 fps, 1k tbn, 47.95 tbc
Stream #0.1: Audio: ac3, 48000 Hz, 5.1, fltp, 384 kb/s (default)
[20:12:02] scan: audio 0x1: ac3, rate=48000Hz, bitrate=384000 Unknown (AC3) (5.1 ch)
[20:12:02] scan: 10 previews, 1280x720, 23.976 fps, autocrop = 0/0/0/0, aspect 16:9, PAR 1:1
[20:12:02] libhb: scan thread found 1 valid title(s)
[20:12:02] 2 job(s) to process
[20:12:02] starting job
[20:12:02] sync: expecting 60236 video frames
[20:12:02] job configuration:
[20:12:02] * source
[20:12:02] + D:\S\DDLValley.rocks_Grimm.S04E05.720p.HDTV.X264-DIMENSION.mkv
[20:12:02] + title 1, chapter(s) 1 to 1
[20:12:02] + container: matroska,webm
[20:12:02] * destination
[20:12:02] + C:\Users\wpuser02\Desktop\DDLValley.rocks_Grimm.S04E05.720p.HDTV.X264-DIMENSION.mkv
[20:12:02] + container: Matroska (libavformat)
[20:12:02] * video track
[20:12:02] + decoder: h264
[20:12:02] + filters
[20:12:02] + Framerate Shaper (1:27000000:1126125)
[20:12:02] + frame rate: 23.976 fps -> constant 23.976 fps
[20:12:02] + Crop and Scale (720:400:0:0:0:0)
[20:12:02] + source: 1280 * 720, crop (0/0/0/0): 1280 * 720, scale: 720 * 400
[20:12:02] + custom anamorphic
[20:12:02] + keeping source display aspect ratio
[20:12:02] + storage dimensions: 720 * 400, mod 16
[20:12:02] + pixel aspect ratio: 79 / 80
[20:12:02] + display dimensions: 711 * 400
[20:12:02] + encoder: H.265 (libx265)
[20:12:02] + preset: medium
[20:12:02] + options: ref=1:subme=2:me=dia:analyse=none:trellis=0:no-fast-pskip=0:8x8dct=0:weightb=0
[20:12:02] + bitrate: 269 kbps, pass: 1
[20:12:02] * audio track 1
[20:12:02] + decoder: Unknown (AC3) (5.1 ch) (track 2, id 0x1)
[20:12:02] + bitrate: 384 kbps, samplerate: 48000 Hz
[20:12:02] + mixdown: Stereo
[20:12:02] + encoder: AAC (libavcodec)
[20:12:02] + bitrate: 96 kbps, samplerate: 48000 Hz
[20:12:02] reader: first SCR 0 id 0x0 DTS 0
[20:12:02] encx265: unknown option 'analyse'
Failure to initialise thread 'H.265/HEVC encoder (libx265)'
[20:12:02] reader: done. 1 scr changes
[20:12:02] render: 0 frames output, 0 dropped and 0 duped for CFR/PFR
[20:12:02] render: lost time: 0 (0 frames)
[20:12:02] render: gained time: 0 (0 frames) (0 not accounted for)
[20:12:02] h264-decoder done: 17 frames, 0 decoder errors, 0 drops
[20:12:02] libhb: work result = 3

Encode failed.

Job completed (Elapsed Time: 1s)

Coordinator
Nov 23, 2014 at 7:17 AM
I still see the same options you passed in last time in the encode log. Are you absolutely sure that the "More settings" box is empty? If so, can you export and share your preset?
Nov 27, 2014 at 11:09 AM
Here you go!

It's completely empty - (http://prntscr.com/5ampz6)

VidCoder 1.5.27.0 (x86)

Starting scan: I:\S\DDLValley.rocks_Stalker.S01E09.720p.HDTV.X264-DIMENSION.mkv

[03:05:13] hb_init: starting libhb thread
[03:05:13] CPU: Intel(R) Xeon(R) CPU E5-1650 0 @ 3.20GHz
[03:05:13] - Intel microarchitecture Sandy Bridge
[03:05:13] - logical processor count: 12
[03:05:13] OpenCL: library not available
[03:05:13] Intel Quick Sync Video support: no
[03:05:13] hb_scan: path=I:\S\DDLValley.rocks_Stalker.S01E09.720p.HDTV.X264-DIMENSION.mkv, title_index=0
libbluray/bdnav/index_parse.c:162: indx_parse(): error opening I:\S\DDLValley.rocks_Stalker.S01E09.720p.HDTV.X264-DIMENSION.mkv/BDMV/index.bdmv
libbluray/bdnav/index_parse.c:162: indx_parse(): error opening I:\S\DDLValley.rocks_Stalker.S01E09.720p.HDTV.X264-DIMENSION.mkv/BDMV/BACKUP/index.bdmv
libbluray/bluray.c:2182: nav_get_title_list(I:\S\DDLValley.rocks_Stalker.S01E09.720p.HDTV.X264-DIMENSION.mkv) failed
[03:05:13] bd: not a bd - trying as a stream/file instead
libdvdnav: Using dvdnav version 5.0.1
libdvdread: Encrypted DVD support unavailable.
libdvdread:DVDOpenFileUDF:UDFFindFile /VIDEO_TS/VIDEO_TS.IFO failed
libdvdread:DVDOpenFileUDF:UDFFindFile /VIDEO_TS/VIDEO_TS.BUP failed
libdvdread: Can't open file VIDEO_TS.IFO.
libdvdnav: vm: failed to read VIDEO_TS.IFO
[03:05:13] dvd: not a dvd - trying as a stream/file instead
Input #0, matroska,webm, from 'I:\S\DDLValley.rocks_Stalker.S01E09.720p.HDTV.X264-DIMENSION.mkv':
Duration: 00:41:44.00, start: 0.000000, bitrate: N/A
Stream #0.0(eng): Video: h264 (High), yuv420p, 1280x720, PAR 1:1 DAR 16:9, 23.98 fps, 1k tbn, 47.95 tbc
Stream #0.1: Audio: ac3, 48000 Hz, 5.1, fltp, 384 kb/s (default)
[03:05:13] dxva2:IDirect3D9_CreateDevice failed
[03:05:13] dxva2:Failed to create Direct3D device
[03:05:13] scan: decoding previews for title 1
Input #0, matroska,webm, from 'I:\S\DDLValley.rocks_Stalker.S01E09.720p.HDTV.X264-DIMENSION.mkv':
Duration: 00:41:44.00, start: 0.000000, bitrate: N/A
Stream #0.0(eng): Video: h264 (High), yuv420p, 1280x720, PAR 1:1 DAR 16:9, 23.98 fps, 1k tbn, 47.95 tbc
Stream #0.1: Audio: ac3, 48000 Hz, 5.1, fltp, 384 kb/s (default)
[03:05:13] scan: audio 0x1: ac3, rate=48000Hz, bitrate=384000 Unknown (AC3) (5.1 ch)
[03:05:13] scan: 10 previews, 1280x720, 23.976 fps, autocrop = 0/0/0/0, aspect 16:9, PAR 1:1
[03:05:13] libhb: scan thread found 1 valid title(s)

Scan completed

Starting queue

VidCoder 1.5.27.0 (x86)

Starting job 1/1

Path: I:\S\DDLValley.rocks_Stalker.S01E09.720p.HDTV.X264-DIMENSION.mkv

Title: 1

Range: All

Worker ready: Service state is Opened on pipe VidCoderWorker.a2079c35-b487-4838-994e-d43605ab0d96

Connecting to process 2708 on pipe VidCoderWorker.a2079c35-b487-4838-994e-d43605ab0d96

[03:05:36] hb_init: starting libhb thread
[03:05:36] CPU: Intel(R) Xeon(R) CPU E5-1650 0 @ 3.20GHz
[03:05:36] - Intel microarchitecture Sandy Bridge
[03:05:36] - logical processor count: 12
[03:05:36] OpenCL: library not available
[03:05:36] Intel Quick Sync Video support: no
[03:05:36] hb_scan: path=I:\S\DDLValley.rocks_Stalker.S01E09.720p.HDTV.X264-DIMENSION.mkv, title_index=1
libbluray/bdnav/index_parse.c:162: indx_parse(): error opening I:\S\DDLValley.rocks_Stalker.S01E09.720p.HDTV.X264-DIMENSION.mkv/BDMV/index.bdmv
libbluray/bdnav/index_parse.c:162: indx_parse(): error opening I:\S\DDLValley.rocks_Stalker.S01E09.720p.HDTV.X264-DIMENSION.mkv/BDMV/BACKUP/index.bdmv
libbluray/bluray.c:2182: nav_get_title_list(I:\S\DDLValley.rocks_Stalker.S01E09.720p.HDTV.X264-DIMENSION.mkv) failed
[03:05:36] bd: not a bd - trying as a stream/file instead
libdvdnav: Using dvdnav version 5.0.1
libdvdread: Encrypted DVD support unavailable.
libdvdread:DVDOpenFileUDF:UDFFindFile /VIDEO_TS/VIDEO_TS.IFO failed
libdvdread:DVDOpenFileUDF:UDFFindFile /VIDEO_TS/VIDEO_TS.BUP failed
libdvdread: Can't open file VIDEO_TS.IFO.
libdvdnav: vm: failed to read VIDEO_TS.IFO
[03:05:36] dvd: not a dvd - trying as a stream/file instead
Input #0, matroska,webm, from 'I:\S\DDLValley.rocks_Stalker.S01E09.720p.HDTV.X264-DIMENSION.mkv':
Duration: 00:41:44.00, start: 0.000000, bitrate: N/A
Stream #0.0(eng): Video: h264 (High), yuv420p, 1280x720, PAR 1:1 DAR 16:9, 23.98 fps, 1k tbn, 47.95 tbc
Stream #0.1: Audio: ac3, 48000 Hz, 5.1, fltp, 384 kb/s (default)
[03:05:36] dxva2:IDirect3D9_CreateDevice failed
[03:05:36] dxva2:Failed to create Direct3D device
[03:05:36] scan: decoding previews for title 1
Input #0, matroska,webm, from 'I:\S\DDLValley.rocks_Stalker.S01E09.720p.HDTV.X264-DIMENSION.mkv':
Duration: 00:41:44.00, start: 0.000000, bitrate: N/A
Stream #0.0(eng): Video: h264 (High), yuv420p, 1280x720, PAR 1:1 DAR 16:9, 23.98 fps, 1k tbn, 47.95 tbc
Stream #0.1: Audio: ac3, 48000 Hz, 5.1, fltp, 384 kb/s (default)
[03:05:36] scan: audio 0x1: ac3, rate=48000Hz, bitrate=384000 Unknown (AC3) (5.1 ch)
[03:05:36] scan: 10 previews, 1280x720, 23.976 fps, autocrop = 0/0/0/0, aspect 16:9, PAR 1:1
[03:05:36] libhb: scan thread found 1 valid title(s)
[03:05:37] 2 job(s) to process
[03:05:37] starting job
[03:05:37] sync: expecting 60036 video frames
[03:05:37] job configuration:
[03:05:37] * source
[03:05:37] + I:\S\DDLValley.rocks_Stalker.S01E09.720p.HDTV.X264-DIMENSION.mkv
[03:05:37] + title 1, chapter(s) 1 to 1
[03:05:37] + container: matroska,webm
[03:05:37] * destination
[03:05:37] + I:\E\DDLValley.rocks_Stalker.S01E09.720p.HDTV.X264-DIMENSION.mkv
[03:05:37] + container: Matroska (libavformat)
[03:05:37] * video track
[03:05:37] + decoder: h264
[03:05:37] + filters
[03:05:37] + Framerate Shaper (1:27000000:1126125)
[03:05:37] + frame rate: 23.976 fps -> constant 23.976 fps
[03:05:37] + Crop and Scale (720:400:0:0:0:0)
[03:05:37] + source: 1280 * 720, crop (0/0/0/0): 1280 * 720, scale: 720 * 400
[03:05:37] + custom anamorphic
[03:05:37] + keeping source display aspect ratio
[03:05:37] + storage dimensions: 720 * 400, mod 16
[03:05:37] + pixel aspect ratio: 79 / 80
[03:05:37] + display dimensions: 711 * 400
[03:05:37] + encoder: H.265 (libx265)
[03:05:37] + options: ref=1:subme=2:me=dia:analyse=none:trellis=0:no-fast-pskip=0:8x8dct=0:weightb=0
[03:05:37] + bitrate: 304 kbps, pass: 1
[03:05:37] * audio track 1
[03:05:37] + decoder: Unknown (AC3) (5.1 ch) (track 2, id 0x1)
[03:05:37] + bitrate: 384 kbps, samplerate: 48000 Hz
[03:05:37] + mixdown: Stereo
[03:05:37] + encoder: AAC (libavcodec)
[03:05:37] + bitrate: 96 kbps, samplerate: 48000 Hz
[03:05:37] reader: first SCR 0 id 0x0 DTS 0
[03:05:37] encx265: unknown option 'analyse'
Failure to initialise thread 'H.265/HEVC encoder (libx265)'
[03:05:37] render: 0 frames output, 0 dropped and 0 duped for CFR/PFR
[03:05:37] render: lost time: 0 (0 frames)
[03:05:37] render: gained time: 0 (0 frames) (0 not accounted for)
[03:05:37] h264-decoder done: 0 frames, 0 decoder errors, 0 drops
[03:05:37] reader: done. 1 scr changes
[03:05:37] libhb: work result = 3

Encode failed.

Job completed (Elapsed Time: 1s)

Queue completed

Starting queue

VidCoder 1.5.27.0 (x86)

Starting job 1/1

Path: I:\S\DDLValley.rocks_Stalker.S01E09.720p.HDTV.X264-DIMENSION.mkv

Title: 1

Range: All

Worker ready: Service state is Opened on pipe VidCoderWorker.df1a0ebe-9d98-4dd8-9bf3-d5aaa9ae1bac

Connecting to process 26276 on pipe VidCoderWorker.df1a0ebe-9d98-4dd8-9bf3-d5aaa9ae1bac

[03:08:14] hb_init: starting libhb thread
[03:08:14] CPU: Intel(R) Xeon(R) CPU E5-1650 0 @ 3.20GHz
[03:08:14] - Intel microarchitecture Sandy Bridge
[03:08:14] - logical processor count: 12
[03:08:14] OpenCL: library not available
[03:08:14] Intel Quick Sync Video support: no
[03:08:14] hb_scan: path=I:\S\DDLValley.rocks_Stalker.S01E09.720p.HDTV.X264-DIMENSION.mkv, title_index=1
libbluray/bdnav/index_parse.c:162: indx_parse(): error opening I:\S\DDLValley.rocks_Stalker.S01E09.720p.HDTV.X264-DIMENSION.mkv/BDMV/index.bdmv
libbluray/bdnav/index_parse.c:162: indx_parse(): error opening I:\S\DDLValley.rocks_Stalker.S01E09.720p.HDTV.X264-DIMENSION.mkv/BDMV/BACKUP/index.bdmv
libbluray/bluray.c:2182: nav_get_title_list(I:\S\DDLValley.rocks_Stalker.S01E09.720p.HDTV.X264-DIMENSION.mkv) failed
[03:08:14] bd: not a bd - trying as a stream/file instead
libdvdnav: Using dvdnav version 5.0.1
libdvdread: Encrypted DVD support unavailable.
libdvdread:DVDOpenFileUDF:UDFFindFile /VIDEO_TS/VIDEO_TS.IFO failed
libdvdread:DVDOpenFileUDF:UDFFindFile /VIDEO_TS/VIDEO_TS.BUP failed
libdvdread: Can't open file VIDEO_TS.IFO.
libdvdnav: vm: failed to read VIDEO_TS.IFO
[03:08:14] dvd: not a dvd - trying as a stream/file instead
Input #0, matroska,webm, from 'I:\S\DDLValley.rocks_Stalker.S01E09.720p.HDTV.X264-DIMENSION.mkv':
Duration: 00:41:44.00, start: 0.000000, bitrate: N/A
Stream #0.0(eng): Video: h264 (High), yuv420p, 1280x720, PAR 1:1 DAR 16:9, 23.98 fps, 1k tbn, 47.95 tbc
Stream #0.1: Audio: ac3, 48000 Hz, 5.1, fltp, 384 kb/s (default)
[03:08:14] dxva2:IDirect3D9_CreateDevice failed
[03:08:14] dxva2:Failed to create Direct3D device
[03:08:14] scan: decoding previews for title 1
Input #0, matroska,webm, from 'I:\S\DDLValley.rocks_Stalker.S01E09.720p.HDTV.X264-DIMENSION.mkv':
Duration: 00:41:44.00, start: 0.000000, bitrate: N/A
Stream #0.0(eng): Video: h264 (High), yuv420p, 1280x720, PAR 1:1 DAR 16:9, 23.98 fps, 1k tbn, 47.95 tbc
Stream #0.1: Audio: ac3, 48000 Hz, 5.1, fltp, 384 kb/s (default)
[03:08:14] scan: audio 0x1: ac3, rate=48000Hz, bitrate=384000 Unknown (AC3) (5.1 ch)
[03:08:14] scan: 10 previews, 1280x720, 23.976 fps, autocrop = 0/0/0/0, aspect 16:9, PAR 1:1
[03:08:14] libhb: scan thread found 1 valid title(s)
[03:08:15] 2 job(s) to process
[03:08:15] starting job
[03:08:15] sync: expecting 60036 video frames
[03:08:15] job configuration:
[03:08:15] * source
[03:08:15] + I:\S\DDLValley.rocks_Stalker.S01E09.720p.HDTV.X264-DIMENSION.mkv
[03:08:15] + title
Nov 27, 2014 at 11:21 AM
Okay, the issue is with turbo first pass! It doesn't support that.