This project is read-only.
1
Vote

# Preview clip generation failed

description

log:

[10:59:50] hb_init: starting libhb thread

Generating preview clip

Path: C:\Users\PC\AppData\Local\VidCoder-Beta\preview.m4v

Title: 1

Preview #: 1

Worker ready: Service state is Opened on pipe VidCoderWorker.4cdc146f-7254-4134-844a-2d85ec0a52c7

Connecting to process 1036 on pipe VidCoderWorker.4cdc146f-7254-4134-844a-2d85ec0a52c7

[11:03:16] hb_init: starting libhb thread
[11:03:16] CPU: Intel(R) Core(TM) i5-2450M CPU @ 2.50GHz
[11:03:16] - Intel microarchitecture Sandy Bridge
[11:03:16] - logical processor count: 2
[11:03:16] Intel Quick Sync Video support: no
[11:03:16] hb_scan: path=E:\VIDEO\WESTERN(1948) Station West [EN] - Dick Powell, Jane Greer\Station West (1948).avi, title_index=1
libbluray/bdnav/index_parse.c:162: indx_parse(): error opening E:\VIDEO\WESTERN(1948) Station West [EN] - Dick Powell, Jane Greer\Station West (1948).avi/BDMV/index.bdmv
libbluray/bdnav/index_parse.c:162: indx_parse(): error opening E:\VIDEO\WESTERN(1948) Station West [EN] - Dick Powell, Jane Greer\Station West (1948).avi/BDMV/BACKUP/index.bdmv
libbluray/bluray.c:2182: nav_get_title_list(E:\VIDEO\WESTERN(1948) Station West [EN] - Dick Powell, Jane Greer\Station West (1948).avi) failed
[11:03:16] bd: not a bd - trying as a stream/file instead
libdvdnav: Using dvdnav version 5.0.1
libdvdread: Encrypted DVD support unavailable.
libdvdread:DVDOpenFileUDF:UDFFindFile /VIDEO_TS/VIDEO_TS.IFO failed
libdvdread:DVDOpenFileUDF:UDFFindFile /VIDEO_TS/VIDEO_TS.BUP failed
libdvdread: Can't open file VIDEO_TS.IFO.
libdvdnav: vm: failed to read VIDEO_TS.IFO
[11:03:16] dvd: not a dvd - trying as a stream/file instead
Input #0, avi, from 'E:\VIDEO\WESTERN(1948) Station West [EN] - Dick Powell, Jane Greer\Station West (1948).avi':
Metadata:
encoder         : VirtualDubMod 1.5.4.1 (build 2178/release)
Duration: 01:19:33.80, start: 0.000000, bitrate: 1230 kb/s
Stream #0.0: Video: mpeg4 (Simple Profile), yuv420p, 640x480 [PAR 1:1 DAR 4:3], 25 tbn, 25 tbc
Stream #0.1: Audio: mp3, 48000 Hz, 2 channels, s16p, 102 kb/s
[11:03:17] dxva2:DxFindVideoServiceConversion failed
[11:03:17] scan: decoding previews for title 1
Input #0, avi, from 'E:\VIDEO\WESTERN(1948) Station West [EN] - Dick Powell, Jane Greer\Station West (1948).avi':
Metadata:
encoder         : VirtualDubMod 1.5.4.1 (build 2178/release)
Duration: 01:19:33.80, start: 0.000000, bitrate: 1230 kb/s
Stream #0.0: Video: mpeg4 (Simple Profile), yuv420p, 640x480 [PAR 1:1 DAR 4:3], 25 tbn, 25 tbc
Stream #0.1: Audio: mp3, 48000 Hz, 2 channels, s16p, 102 kb/s
[11:03:17] scan: audio 0x1: mp3, rate=48000Hz, bitrate=102184 Unknown (MP3) (2.0 ch)
[11:03:17] scan: 10 previews, 640x480, 25.000 fps, autocrop = 0/0/0/0, aspect 4:3, PAR 1:1
[11:03:17] libhb: scan thread found 1 valid title(s)
[11:03:17] 1 job(s) to process
[11:03:17] starting job
[11:03:17] Passthru requested and input codec is not the same as output codec for track 2, dropping track
[11:03:17] work: sanitizing track 1 mixdown Dolby Pro Logic II to Stereo
[11:03:17] sync: expecting 150 video frames
[11:03:17] work: only 1 chapter, disabling chapter markers
[11:03:17] job configuration:
[11:03:17] * source
[11:03:17] + E:\VIDEO\WESTERN(1948) Station West [EN] - Dick Powell, Jane Greer\Station West (1948).avi
[11:03:17] + title 1, start 00:00:0.00 stop 00:00:5.00
[11:03:17] + container: avi
[11:03:17] + data rate: 1230 kbps
[11:03:17] * destination
[11:03:17] + C:\Users\PC\AppData\Local\VidCoder-Beta\preview.m4v
[11:03:17] + container: MPEG-4 (libavformat)
[11:03:17] * video track
[11:03:17] + decoder: mpeg4
[11:03:17] + filters
[11:03:17] + Framerate Shaper (1:27000000:1080000)
[11:03:17] + frame rate: 25.000 fps -> constant 25.000 fps
[11:03:17] + Crop and Scale (640:480:0:0:0:0)
[11:03:17] + source: 640 * 480, crop (0/0/0/0): 640 * 480, scale: 640 * 480
[11:03:17] + loose anamorphic
[11:03:17] + storage dimensions: 640 * 480, mod 2
[11:03:17] + pixel aspect ratio: 1 / 1
[11:03:17] + display dimensions: 640 * 480
[11:03:17] + encoder: H.265 (libx265)
[11:03:17] + preset: fast
[11:03:17] + tune: fastdecode
[11:03:17] + quality: 20.00 (RF)
[11:03:17] * audio track 1
[11:03:17] + decoder: Unknown (MP3) (2.0 ch) (track 2, id 0x1)
[11:03:17] + bitrate: 102 kbps, samplerate: 48000 Hz
[11:03:17] + mixdown: Stereo
[11:03:17] + encoder: AAC (libavcodec)
[11:03:17] + bitrate: 160 kbps, samplerate: 48000 Hz
[11:03:17] reader: first SCR 38347200 id 0x0 DTS 38347200
[11:03:17] dxva2:DxFindVideoServiceConversion failed
x265 [info]: HEVC encoder version 1.3
x265 [info]: build info [Windows][GCC 4.8.0][64 bit] 8bpp
x265 [info]: using cpu capabilities: MMX2 SSE2Fast SSSE3 SSE4.2 AVX
x265 [info]: WPP streams / pool / frames : 8 / 2 / 1
x265 [info]: Main profile, Level-3 (Main tier)
x265 [info]: CU size : 64
x265 [info]: Max RQT depth inter / intra : 1 / 1
x265 [info]: ME / range / subpel / merge : hex / 57 / 2 / 2
x265 [info]: Keyframe min / max / scenecut : 25 / 250 / 40
x265 [info]: Lookahead / bframes / badapt : 15 / 4 / 0
x265 [info]: b-pyramid / weightp / weightb / refs: 1 / 0 / 0 / 2
x265 [info]: Rate Control / AQ-Strength / CUTree : CRF-20.0 / 1.0 / 1
x265 [info]: tools: rd=2 signhide fast-intra
avio_open2 failed, errno -2
[11:03:17] work: average encoding speed for job is 0.000000 fps
[11:03:17] sync: adding 520 ms of silence to audio 0x1 start 46800, next 0
[11:03:17] sync: got 0 frames, 150 expected
[11:03:18] render: 0 frames output, 0 dropped and 0 duped for CFR/PFR
[11:03:18] render: lost time: 0 (0 frames)
[11:03:18] render: gained time: 0 (0 frames) (0 not accounted for)
[11:03:18] mpeg4-decoder done: 24 frames, 0 decoder errors, 0 drops
[11:03:18] reader: done. 1 scr changes
[11:03:18] mp3-decoder done: 0 frames, 0 decoder errors, 0 drops
[11:03:18] libhb: work result = 3

Preview clip generation failed

Generating preview clip

Path: C:\Users\PC\AppData\Local\VidCoder-Beta\preview.m4v

Title: 1

Preview #: 1

Worker ready: Service state is Opened on pipe VidCoderWorker.d834751c-c039-4f9d-8702-f5740b9a7378

Connecting to process 3376 on pipe VidCoderWorker.d834751c-c039-4f9d-8702-f5740b9a7378

[11:03:26] hb_init: starting libhb thread
[11:03:26] CPU: Intel(R) Core(TM) i5-2450M CPU @ 2.50GHz
[11:03:26] - Intel microarchitecture Sandy Bridge
[11:03:26] - logical processor count: 2
[11:03:26] Intel Quick Sync Video support: no
[11:03:26] hb_scan: path=E:\VIDEO\WESTERN(1948) Station West [EN] - Dick Powell, Jane Greer\Station West (1948).avi, title_index=1
libbluray/bdnav/index_parse.c:162: indx_parse(): error opening E:\VIDEO\WESTERN(1948) Station West [EN] - Dick Powell, Jane Greer\Station West (1948).avi/BDMV/index.bdmv
libbluray/bdnav/index_parse.c:162: indx_parse(): error opening E:\VIDEO\WESTERN(1948) Station West [EN] - Dick Powell, Jane Greer\Station West (1948).avi/BDMV/BACKUP/index.bdmv
libbluray/bluray.c:2182: nav_get_title_list(E:\VIDEO\WESTERN(1948) Station West [EN] - Dick Powell, Jane Greer\Station West (1948).avi) failed
[11:03:26] bd: not a bd - trying as a stream/file instead
libdvdnav: Using dvdnav version 5.0.1
libdvdread: Encrypted DVD support unavailable.
libdvdread:DVDOpenFileUDF:UDFFindFile /VIDEO_TS/VIDEO_TS.IFO failed
libdvdread:DVDOpenFileUDF:UDFFindFile /VIDEO_TS/VIDEO_TS.BUP failed
libdvdread: Can't open file VIDEO_TS.IFO.
libdvdnav: vm: failed to read VIDEO_TS.IFO
[11:03:26] dvd: not a dvd - trying as a stream/file instead
Input #0, avi, from 'E:\VIDEO\WESTERN(1948) Station West [EN] - Dick Powell, Jane Greer\Station West (1948).avi':
Metadata:
encoder         : VirtualDubMod 1.5.4.1 (build 2178/release)
Duration: 01:19:33.80, start: 0.000000, bitrate: 1230 kb/s
Stream #0.0: Video: mpeg4 (Simple Profile), yuv420p, 640x480 [PAR 1:1 DAR 4:3], 25 tbn, 25 tbc
Stream #0.1: Audio: mp3, 48000 Hz, 2 channels, s16p, 102 kb/s
[11:03:26] dxva2:DxFindVideoServiceConversion failed
[11:03:26] scan: decoding previews for title 1
Input #0, avi, from 'E:\VIDEO\WESTERN(1948) Station West [EN] - Dick Powell, Jane Greer\Station West (1948).avi':
Metadata:
encoder         : VirtualDubMod 1.5.4.1 (build 2178/release)
Duration: 01:19:33.80, start: 0.000000, bitrate: 1230 kb/s
Stream #0.0: Video: mpeg4 (Simple Profile), yuv420p, 640x480 [PAR 1:1 DAR 4:3], 25 tbn, 25 tbc
Stream #0.1: Audio: mp3, 48000 Hz, 2 channels, s16p, 102 kb/s
[11:03:26] scan: audio 0x1: mp3, rate=48000Hz, bitrate=102184 Unknown (MP3) (2.0 ch)
[11:03:26] scan: 10 previews, 640x480, 25.000 fps, autocrop = 0/0/0/0, aspect 4:3, PAR 1:1
[11:03:26] libhb: scan thread found 1 valid title(s)
[11:03:27] 1 job(s) to process
[11:03:27] starting job
[11:03:27] Passthru requested and input codec is not the same as output codec for track 2, dropping track
[11:03:27] work: sanitizing track 1 mixdown Dolby Pro Logic II to Stereo
[11:03:27] sync: expecting 150 video frames
[11:03:27] work: only 1 chapter, disabling chapter markers
[11:03:27] job configuration:
[11:03:27] * source
[11:03:27] + E:\VIDEO\WESTERN(1948) Station West [EN] - Dick Powell, Jane Greer\Station West (1948).avi
[11:03:27] + title 1, start 00:00:0.00 stop 00:00:5.00
[11:03:27] + container: avi
[11:03:27] + data rate: 1230 kbps
[11:03:27] * destination
[11:03:27] + C:\Users\PC\AppData\Local\VidCoder-Beta\preview.m4v
[11:03:27] + container: MPEG-4 (libavformat)
[11:03:27] * video track
[11:03:27] + decoder: mpeg4
[11:03:27] + filters
[11:03:27] + Framerate Shaper (1:27000000:1080000)
[11:03:27] + frame rate: 25.000 fps -> constant 25.000 fps
[11:03:27] + Crop and Scale (640:480:0:0:0:0)
[11:03:27] + source: 640 * 480, crop (0/0/0/0): 640 * 480, scale: 640 * 480
[11:03:27] + loose anamorphic
[11:03:27] + storage dimensions: 640 * 480, mod 2
[11:03:27] + pixel aspect r

file attachments

comments

RandomEngy wrote Nov 1, 2014 at 7:47 PM

I don't know what's wrong here. Does it also happen with HandBrake?