This project is read-only.
1
Vote

Video encoder qsv_h264 not recognized

description

VidCoder 1.5.27.0 (x64)

Starting scan: D:\TorrentCompleted\Galileo 2 (848x480 x264)\2\Galileo 2 ep03 (848x480 x264).mp4

[15:59:29] hb_init: starting libhb thread
[15:59:29] CPU: Intel(R) Core(TM) i7-4702MQ CPU @ 2.20GHz
[15:59:29] - Intel microarchitecture Haswell
[15:59:29] - logical processor count: 8
[15:59:30] OpenCL device #1: Intel(R) Corporation Intel(R) HD Graphics 4600
[15:59:30] - OpenCL version: 1.2
[15:59:30] - driver version: 10.18.10.3355
[15:59:30] - device type: GPU
[15:59:30] - supported: YES
[15:59:30] OpenCL device #2: NVIDIA Corporation GeForce GT 750M
[15:59:30] - OpenCL version: 1.1 CUDA
[15:59:30] - driver version: 332.35
[15:59:30] - device type: GPU
[15:59:30] - supported: no
[15:59:30] Intel Quick Sync Video support: yes
[15:59:30] - Intel Media SDK hardware: API 1.7 (minimum: 1.3)
[15:59:30] - H.264 encoder: yes
[15:59:30] - preferred implementation: hardware (any)
[15:59:30] - H.265 encoder: no
[15:59:30] hb_scan: path=D:\TorrentCompleted\Galileo 2 (848x480 x264)\2\Galileo 2 ep03 (848x480 x264).mp4, title_index=0
libbluray/bdnav/index_parse.c:162: indx_parse(): error opening D:\TorrentCompleted\Galileo 2 (848x480 x264)\2\Galileo 2 ep03 (848x480 x264).mp4/BDMV/index.bdmv
libbluray/bdnav/index_parse.c:162: indx_parse(): error opening D:\TorrentCompleted\Galileo 2 (848x480 x264)\2\Galileo 2 ep03 (848x480 x264).mp4/BDMV/BACKUP/index.bdmv
libbluray/bluray.c:2182: nav_get_title_list(D:\TorrentCompleted\Galileo 2 (848x480 x264)\2\Galileo 2 ep03 (848x480 x264).mp4) failed
[15:59:30] bd: not a bd - trying as a stream/file instead
libdvdnav: Using dvdnav version 5.0.1
libdvdread: Encrypted DVD support unavailable.
libdvdread:DVDOpenFileUDF:UDFFindFile /VIDEO_TS/VIDEO_TS.IFO failed
libdvdread:DVDOpenFileUDF:UDFFindFile /VIDEO_TS/VIDEO_TS.BUP failed
libdvdread: Can't open file VIDEO_TS.IFO.
libdvdnav: vm: failed to read VIDEO_TS.IFO
[15:59:30] dvd: not a dvd - trying as a stream/file instead
Input #0, mov,mp4,m4a,3gp,3g2,mj2, from 'D:\TorrentCompleted\Galileo 2 (848x480 x264)\2\Galileo 2 ep03 (848x480 x264).mp4':
Metadata:
major_brand     : isom
minor_version   : 1
compatible_brands: isomavc1
creation_time   : 2013-04-30 04:32:33
Duration: 00:46:24.91, start: 0.000000, bitrate: 1232 kb/s
Stream #0.0(und): Video: h264 (High), yuv420p, 848x480 [PAR 1:1 DAR 53:30], 1099 kb/s, 29.97 fps, 30k tbn, 59.94 tbc (default)
Metadata:
  creation_time   : 2013-04-30 04:32:33
Stream #0.1(und): Audio: aac, 48000 Hz, stereo, fltp, 127 kb/s (default)
Metadata:
  creation_time   : 2013-04-30 04:05:44
[15:59:30] scan: decoding previews for title 1
Input #0, mov,mp4,m4a,3gp,3g2,mj2, from 'D:\TorrentCompleted\Galileo 2 (848x480 x264)\2\Galileo 2 ep03 (848x480 x264).mp4':
Metadata:
major_brand     : isom
minor_version   : 1
compatible_brands: isomavc1
creation_time   : 2013-04-30 04:32:33
Duration: 00:46:24.91, start: 0.000000, bitrate: 1232 kb/s
Stream #0.0(und): Video: h264 (High), yuv420p, 848x480 [PAR 1:1 DAR 53:30], 1099 kb/s, 29.97 fps, 30k tbn, 59.94 tbc (default)
Metadata:
  creation_time   : 2013-04-30 04:32:33
Stream #0.1(und): Audio: aac, 48000 Hz, stereo, fltp, 127 kb/s (default)
Metadata:
  creation_time   : 2013-04-30 04:05:44
[15:59:30] scan: audio 0x1: aac, rate=48000Hz, bitrate=127999 Unknown (AAC) (2.0 ch)
[15:59:30] scan: 10 previews, 848x480, 29.970 fps, autocrop = 0/0/0/0, aspect 1.77:1, PAR 1:1
[15:59:30] libhb: scan thread found 1 valid title(s)

Scan completed

ERROR: hb_init_opencl_env: OpenCL support not available

Starting queue

VidCoder 1.5.27.0 (x64)

Starting job 1/1

Path: D:\TorrentCompleted\Galileo 2 (848x480 x264)\2\Galileo 2 ep03 (848x480 x264).mp4

Title: 1

Range: All

Worker ready: Service state is Opened on pipe VidCoderWorker.f99b2606-c35c-45b6-ab71-3122a96e66c4

Connecting to process 4548 on pipe VidCoderWorker.f99b2606-c35c-45b6-ab71-3122a96e66c4

[16:00:33] hb_init: starting libhb thread
[16:00:33] CPU: Intel(R) Core(TM) i7-4702MQ CPU @ 2.20GHz
[16:00:33] - Intel microarchitecture Haswell
[16:00:33] - logical processor count: 8
[16:00:33] OpenCL device #1: Intel(R) Corporation Intel(R) HD Graphics 4600
[16:00:33] - OpenCL version: 1.2
[16:00:33] - driver version: 10.18.10.3355
[16:00:33] - device type: GPU
[16:00:33] - supported: YES
[16:00:33] OpenCL device #2: NVIDIA Corporation GeForce GT 750M
[16:00:33] - OpenCL version: 1.1 CUDA
[16:00:33] - driver version: 332.35
[16:00:33] - device type: GPU
[16:00:33] - supported: no
[16:00:33] Intel Quick Sync Video support: no
[16:00:33] hb_scan: path=D:\TorrentCompleted\Galileo 2 (848x480 x264)\2\Galileo 2 ep03 (848x480 x264).mp4, title_index=1
libbluray/bdnav/index_parse.c:162: indx_parse(): error opening D:\TorrentCompleted\Galileo 2 (848x480 x264)\2\Galileo 2 ep03 (848x480 x264).mp4/BDMV/index.bdmv
libbluray/bdnav/index_parse.c:162: indx_parse(): error opening D:\TorrentCompleted\Galileo 2 (848x480 x264)\2\Galileo 2 ep03 (848x480 x264).mp4/BDMV/BACKUP/index.bdmv
libbluray/bluray.c:2182: nav_get_title_list(D:\TorrentCompleted\Galileo 2 (848x480 x264)\2\Galileo 2 ep03 (848x480 x264).mp4) failed
[16:00:33] bd: not a bd - trying as a stream/file instead
libdvdnav: Using dvdnav version 5.0.1
libdvdread: Encrypted DVD support unavailable.
libdvdread:DVDOpenFileUDF:UDFFindFile /VIDEO_TS/VIDEO_TS.IFO failed
libdvdread:DVDOpenFileUDF:UDFFindFile /VIDEO_TS/VIDEO_TS.BUP failed
libdvdread: Can't open file VIDEO_TS.IFO.
libdvdnav: vm: failed to read VIDEO_TS.IFO
[16:00:33] dvd: not a dvd - trying as a stream/file instead
Input #0, mov,mp4,m4a,3gp,3g2,mj2, from 'D:\TorrentCompleted\Galileo 2 (848x480 x264)\2\Galileo 2 ep03 (848x480 x264).mp4':
Metadata:
major_brand     : isom
minor_version   : 1
compatible_brands: isomavc1
creation_time   : 2013-04-30 04:32:33
Duration: 00:46:24.91, start: 0.000000, bitrate: 1232 kb/s
Stream #0.0(und): Video: h264 (High), yuv420p, 848x480 [PAR 1:1 DAR 53:30], 1099 kb/s, 29.97 fps, 30k tbn, 59.94 tbc (default)
Metadata:
  creation_time   : 2013-04-30 04:32:33
Stream #0.1(und): Audio: aac, 48000 Hz, stereo, fltp, 127 kb/s (default)
Metadata:
  creation_time   : 2013-04-30 04:05:44
[16:00:33] scan: decoding previews for title 1
Input #0, mov,mp4,m4a,3gp,3g2,mj2, from 'D:\TorrentCompleted\Galileo 2 (848x480 x264)\2\Galileo 2 ep03 (848x480 x264).mp4':
Metadata:
major_brand     : isom
minor_version   : 1
compatible_brands: isomavc1
creation_time   : 2013-04-30 04:32:33
Duration: 00:46:24.91, start: 0.000000, bitrate: 1232 kb/s
Stream #0.0(und): Video: h264 (High), yuv420p, 848x480 [PAR 1:1 DAR 53:30], 1099 kb/s, 29.97 fps, 30k tbn, 59.94 tbc (default)
Metadata:
  creation_time   : 2013-04-30 04:32:33
Stream #0.1(und): Audio: aac, 48000 Hz, stereo, fltp, 127 kb/s (default)
Metadata:
  creation_time   : 2013-04-30 04:05:44
[16:00:33] scan: audio 0x1: aac, rate=48000Hz, bitrate=127999 Unknown (AAC) (2.0 ch)
[16:00:33] scan: 10 previews, 848x480, 29.970 fps, autocrop = 0/0/0/0, aspect 1.77:1, PAR 1:1
[16:00:33] libhb: scan thread found 1 valid title(s)

Worker process crashed. Please report this error so it can be fixed in the future:

System.ArgumentException: Video encoder qsv_h264 not recognized.
at HandBrake.Interop.HandBrakeInstance.ApplyJob(hb_job_s& nativeJob, EncodeJob job, Boolean preview, Int32 previewNumber, Int32 previewSeconds, Double overallSelectedLengthSeconds) in d:\docs\projects\HandBrakeSVN\win\CS\HandBrake.Interop\HandBrakeInterop\HandBrakeInstance.cs:line 1381
at HandBrake.Interop.HandBrakeInstance.StartEncode(EncodeJob job, Boolean preview, Int32 previewNumber, Int32 previewSeconds, Double overallSelectedLengthSeconds, Int32 scanPreviewCount) in d:\docs\projects\HandBrakeSVN\win\CS\HandBrake.Interop\HandBrakeInterop\HandBrakeInstance.cs:line 480
at VidCoderWorker.HandBrakeEncoder.<>c__DisplayClassf.<StartEncode>b__5(Object o, EventArgs e) in d:\docs\projects\VidCoder\VidCoderWorker\HandBrakeEncoder.cs:line 66

Encode failed.

Job completed (Elapsed Time: 13s)

Queue completed

Starting queue

VidCoder 1.5.27.0 (x64)

Starting job 1/1

Path: D:\TorrentCompleted\Galileo 2 (848x480 x264)\2\Galileo 2 ep03 (848x480 x264).mp4

Title: 1

Range: All

Worker ready: Service state is Opened on pipe VidCoderWorker.a7641499-b74d-45ab-bd39-a99ec91b01cc

Connecting to process 5128 on pipe VidCoderWorker.a7641499-b74d-45ab-bd39-a99ec91b01cc

[16:07:00] hb_init: starting libhb thread
[16:07:00] CPU: Intel(R) Core(TM) i7-4702MQ CPU @ 2.20GHz
[16:07:00] - Intel microarchitecture Haswell
[16:07:00] - logical processor count: 8
[16:07:01] OpenCL device #1: Intel(R) Corporation Intel(R) HD Graphics 4600
[16:07:01] - OpenCL version: 1.2
[16:07:01] - driver version: 10.18.10.3355
[16:07:01] - device type: GPU
[16:07:01] - supported: YES
[16:07:01] OpenCL device #2: NVIDIA Corporation GeForce GT 750M
[16:07:01] - OpenCL version: 1.1 CUDA
[16:07:01] - driver version: 332.35
[16:07:01] - device type: GPU
[16:07:01] - supported: no
[16:07:01] Intel Quick Sync Video support: no
[16:07:01] hb_scan: path=D:\TorrentCompleted\Galileo 2 (848x480 x264)\2\Galileo 2 ep03 (848x480 x264).mp4, title_index=1
libbluray/bdnav/index_parse.c:162: indx_parse(): error opening D:\TorrentCompleted\Galileo 2 (848x480 x264)\2\Galileo 2 ep03 (848x480 x264).mp4/BDMV/index.bdmv
libbluray/bdnav/index_parse.c:162: indx_parse(): error opening D:\TorrentCompleted\Galileo 2 (848x480 x264)\2\Galileo 2 ep03 (848x480 x264).mp4/BDMV/BACKUP/index.bdmv
libbluray/bluray.c:2182: nav_get_title_list(D:\TorrentCompleted\Galileo 2 (848x480 x264)\2\Galileo 2 ep03 (848x480 x264).mp4) failed
[16:07:01] bd: not a bd - trying as a stream/file instead
libdvdnav: Using dvdnav version 5.0.1
libdvdread: Encrypted DVD support unavailable.
libdvdread:DVDOpenFileUDF:UDFF

comments