This project is read-only.
1
Vote

Problems with SD Streams (*.trp)

description

THis is the Mediainfo information about the approx 3 GB large trp stream recorded with a Kathrein Sat receiver:

General
ID : 9 (0x9)
Complete name :aufnahme00.trp
Format : MPEG-TS
File size : 2.97 GiB
Duration : 1h 52mn
Overall bit rate : 3 772 Kbps

Video
ID : 511 (0x1FF)
Menu ID : 61 (0x3D)
Format : MPEG Video
Format version : Version 2
Format profile : Main@Main
Format settings, BVOP : Yes
Format settings, Matrix : Custom
Format settings, GOP : M=3, N=12
Codec ID : 2
Duration : 1h 52mn
Bit rate mode : Variable
Bit rate : 3 198 Kbps
Maximum bit rate : 15.0 Mbps
Width : 720 pixels
Height : 576 pixels
Display aspect ratio : 4:3
Active Format Description, Muxin : A/53
Frame rate : 25.000 fps
Standard : PAL
Color space : YUV
Chroma subsampling : 4:2:0
Bit depth : 8 bits
Scan type : Interlaced
Scan order : Top Field First
Compression mode : Lossy
Bits/(PixelFrame) : 0.308
Stream size : 2.52 GiB (85%)

Audio #1
ID : 512 (0x200)
Menu ID : 61 (0x3D)
Format : MPEG Audio
Format version : Version 1
Format profile : Layer 2
Codec ID : 4
Duration : 1h 52mn
Bit rate mode : Constant
Bit rate : 192 Kbps
Channel(s) : 2 channels
Sampling rate : 48.0 KHz
Compression mode : Lossy
Delay relative to video : -625ms
Stream size : 155 MiB (5%)
Language : German
Language, more info : Clean effects

Audio #2
ID : 513 (0x201)
Menu ID : 61 (0x3D)
Format : MPEG Audio
Format version : Version 1
Format profile : Layer 2
Codec ID : 4
Duration : 1h 52mn
Bit rate mode : Constant
Bit rate : 192 Kbps
Channel(s) : 2 channels
Sampling rate : 48.0 KHz
Compression mode : Lossy
Delay relative to video : -668ms
Stream size : 155 MiB (5%)
Language : English
Language, more info : Clean effects

Menu
ID : 97 (0x61)
Menu ID : 61 (0x3D)
Duration : 1h 52mn
List : 511 (0x1FF) (MPEG Video) / 512 (0x200) (MPEG Audio, German) / 513 (0x201) (MPEG Audio, English)
Language : / German / English


This was fed into Vidcoder 1.01.0 (x64) and recoded to a file in an MKV container with this Mediainfo characteristics:


General
Unique ID : 81335580639954444428878933288944170613 (0x3D30A9BC5331B22FB4A3B3256F787675)
Complete name : F:\xxxxxxxxxxx.mkv
Format : Matroska
Format version : Version 2
File size : 1.82 GiB
Duration : 1h 52mn
Overall bit rate : 2 307 Kbps
Writing application : HandBrake 4167svn
Writing library : libmkv 0.6.4.2

Video
ID : 1
Format : AVC
Format/Info : Advanced Video Codec
Format profile : Main@L3.0 Format settings, CABAC : Yes
Format settings, ReFrames : 4 frames
Codec ID : V_MPEG4/ISO/AVC
Duration : 1h 52mn
Nominal bit rate : 2 000 Kbps
Width : 714 pixels
Height : 446 pixels
Display aspect ratio : 2.25:1
Original display aspect ratio : 2.25:1
Frame rate mode : Variable
Frame rate : 25.000 fps
Color space : YUV
Chroma subsampling : 4:2:0
Bit depth : 8 bits
Scan type : Progressive
Bits/(Pixel
Frame) : 0.251
Writing library : x264 core 116
Encoding settings : cabac=1 / ref=2 / deblock=1:0:0 / analyse=0x1:0x111 / me=hex / subme=6 / psy=1 / psy_rd=1.00:0.00 / mixed_ref=0 / me_range=16 / chroma_me=1 / trellis=0 / 8x8dct=0 / cqm=0 / deadzone=21,11 / fast_pskip=1 / chroma_qp_offset=-2 / threads=6 / sliced_threads=0 / nr=0 / decimate=1 / interlaced=0 / bluray_compat=0 / constrained_intra=0 / bframes=2 / b_pyramid=2 / b_adapt=1 / b_bias=0 / direct=1 / weightb=0 / open_gop=0 / weightp=2 / keyint=250 / keyint_min=25 / scenecut=40 / intra_refresh=0 / rc_lookahead=40 / rc=abr / mbtree=1 / bitrate=2000 / ratetol=1.0 / qcomp=0.60 / qpmin=3 / qpmax=69 / qpstep=4 / ip_ratio=1.40 / aq=1:1.00
Language : English
Color primaries : BT.601-6 525, BT.1358 525, BT.1700 NTSC, SMPTE 170M
Transfer characteristics : BT.709-5, BT.1361
Matrix coefficients : BT.601-6 525, BT.1358 525, BT.1700 NTSC, SMPTE 170M

Audio #1
ID : 2
Format : MPEG Audio
Format version : Version 1
Format profile : Layer 3
Codec ID : A_MPEG/L3
Codec ID/Hint : MP3
Duration : 1h 52mn
Bit rate mode : Variable
Channel(s) : 2 channels
Sampling rate : 48.0 KHz
Compression mode : Lossy
Language : German

Audio #2
ID : 3
Format : MPEG Audio
Format version : Version 1
Format profile : Layer 3
Codec ID : A_MPEG/L3
Codec ID/Hint : MP3
Duration : 1h 52mn
Bit rate mode : Variable
Channel(s) : 2 channels
Sampling rate : 48.0 KHz
Compression mode : Lossy
Language : English


Cropping is automatic, except for data rate (set to 2000 fps) all settings are at default.

When I refeed the resulting file into Vidcoder program reports a "scanning error".

In VLC file stutters, eventually stops, fails video.

When I recode the same input file to mp4 file resultant file plays in VLC

This problem by the way ONLY happens with SD resolutions, not with HD

comments

Traugott wrote Sep 15, 2011 at 11:01 AM

The same input file encodes without problem in Xrecode or Formatfactory by the way - incl. to mkv container

RandomEngy wrote Sep 16, 2011 at 11:50 PM

Might be a HandBrake issue. See http://vidcoder.codeplex.com/wikipage?title=Submitting bug reports

Traugott wrote Sep 17, 2011 at 7:38 AM

Thanks. I checked the Handbrake FAQ but there was no mention of this behaviour. Will experiment and run the same SD file through Handbrake only and check whether the same problem is encountered.