This project is read-only.
1
Vote

MXF IMX50

description

La version 0.96 de vidcoder fonctionnait pour traiter les fichiers IMX MXF50. Toutes les versions supérieures bloquent lors de l'opération de scanning source.

comments

Archives_Lausanne wrote Oct 11, 2011 at 7:14 AM

Version 0.96 of vidcoder function to process the files MXF50 IMX. All versions above block during the operation of scanning source.

RandomEngy wrote Oct 30, 2011 at 2:26 AM

I can't help you without details: an encode log and explanation in English.

Archives_Lausanne wrote Nov 7, 2011 at 10:40 AM

Sorry for my bad English.
Thank you again for your excellent work
Version 0.9.3 worked perfectly with MXF files IMG50. Since the upgrade to version 1.0, the process hangs when scanning source.

The result of the Log:

VidCoder 1.2.1.0 (x86)

Starting scan: E:\K01048_P241_InfosRL_1997_12_25.mxf

[11:30:36] hb_init: starting libhb thread
[11:30:36] hb_scan: path=E:\K01048_P241_InfosRL_1997_12_25.mxf, title_index=0
libbluray/bdnav/index_parse.c:157: indx_parse(): error opening E:\K01048_P241_InfosRL_1997_12_25.mxf/BDMV/index.bdmv
libbluray/bluray.c:1471: nav_get_title_list(E:\K01048_P241_InfosRL_1997_12_25.mxf) failed (0x4d7b208)
[11:30:36] bd: not a bd - trying as a stream/file instead
libdvdread: Encrypted DVD support unavailable.
libdvdnav:DVDOpenFileUDF:UDFFindFile /VIDEO_TS/VIDEO_TS.IFO failed
libdvdnav:DVDOpenFileUDF:UDFFindFile /VIDEO_TS/VIDEO_TS.BUP failed
libdvdread: Can't open file VIDEO_TS.IFO.
dvd: ifoOpen failed
Input #0, mxf, from 'E:\K01048_P241_InfosRL_1997_12_25.mxf':
Duration: 00:17:40.68, start: 0.000000, bitrate: 62566 kb/s
Stream #0.0: Video: mpeg2video (4:2:2), yuv422p, 720x608 [PAR 152:135 DAR 4:3], 50000 kb/s, 25 fps, 25 tbr, 25 tbn, 50 tbc
Stream #0.1: Audio: pcm_s16le, 48000 Hz, 8 channels, s16, 6144 kb/s
[11:30:37] No channel layout reported by Libav; guessing one from channel count.
[11:30:37] scan: decoding previews for title 1
[11:32:24] Warning: Could not read data for preview 1, skipped
[11:34:12] Warning: Could not read data for preview 2, skipped
[11:36:00] Warning: Could not read data for preview 3, skipped
[11:37:48] Warning: Could not read data for preview 4, skipped
[11:39:36] Warning: Could not read data for preview 5, skipped
...

RandomEngy wrote Nov 7, 2011 at 5:23 PM

Alright, so it hangs when scanning. Could you see if this also happens in the latest nightlies in HandBrake? If so, you can report to them (with the encode log).

Archives_Lausanne wrote Nov 8, 2011 at 9:45 AM

I tested the version of Handbrake 0.9.5 (2011010300). In this version the encoding works very well. cordially

RandomEngy wrote Nov 8, 2011 at 3:46 PM

The latest nightly of HandBrake, not the latest stable version. https://build.handbrake.fr/view/Nightlies/job/Windows/