Vidcoder not work in Mirillis Action video files!!

Mar 11, 2013 at 1:05 AM
Edited Mar 11, 2013 at 1:06 AM
Hello all,

Thanks to nice software.

My big problem is Vidcoder not work in Mirillis Action video files.

The error is :
## VidCoder 1.3.4.0 (x64)
# Starting scan: D:\CAPTURAS\ACTION\Desktop 03-03-2013 18-07-54.avi
[21:02:59] hb_init: starting libhb thread
[21:02:59] hb_scan: path=D:\CAPTURAS\ACTION\Desktop 03-03-2013 18-07-54.avi, title_index=0
libbluray/bdnav/index_parse.c:157: indx_parse(): error opening D:\CAPTURAS\ACTION\Desktop 03-03-2013 18-07-54.avi/BDMV/index.bdmv
libbluray/bluray.c:1471: nav_get_title_list(D:\CAPTURAS\ACTION\Desktop 03-03-2013 18-07-54.avi) failed (000000002E474F10)
[21:02:59] bd: not a bd - trying as a stream/file instead
libdvdnav: Using dvdnav version 4.1.3
libdvdread: Encrypted DVD support unavailable.
libdvdnav:DVDOpenFileUDF:UDFFindFile /VIDEO_TS/VIDEO_TS.IFO failed
libdvdnav:DVDOpenFileUDF:UDFFindFile /VIDEO_TS/VIDEO_TS.BUP failed
libdvdread: Can't open file VIDEO_TS.IFO.
libdvdnav: vm: failed to read VIDEO_TS.IFO
[21:02:59] dvd: not a dvd - trying as a stream/file instead
Input #0, avi, from 'D:\CAPTURAS\ACTION\Desktop 03-03-2013 18-07-54.avi':
  Duration: 00:00:36.20, start: 0.000000, bitrate: 30810 kb/s
    Stream #0.0: Video: FICV / 0x56434946, 584x478, 60 fps, 60 tbr, 60 tbn, 60 tbc
    Stream #0.1: Audio: pcm_s16le, 48000 Hz, 2 channels, s16, 1536 kb/s
[21:02:59] No channel layout reported by Libav; guessing one from channel count.
[21:02:59] scan: decoding previews for title 1
[21:03:00] Warning: Could not read data for preview 1, skipped
[21:03:00] Warning: Could not read data for preview 2, skipped
[21:03:00] Warning: Could not read data for preview 3, skipped
[21:03:00] Warning: Could not read data for preview 4, skipped
[21:03:00] Warning: Could not read data for preview 5, skipped
[21:03:00] Warning: Could not read data for preview 6, skipped
[21:03:00] Warning: Could not read data for preview 7, skipped
[21:03:00] Warning: Could not read data for preview 8, skipped
[21:03:00] Warning: Could not read data for preview 9, skipped
[21:03:00] Warning: Could not read data for preview 10, skipped
[21:03:00] libhb: scan thread found 0 valid title(s)
# Scan completed
Please, fix it.


Claudio
Coordinator
Mar 11, 2013 at 2:02 AM
The HandBrake people are the ones that would add that. You can ask for that here: https://forum.handbrake.fr/viewforum.php?f=26